eztvx.to | eztvstatus.org
Search title:  
TV Packs only
 

Smartless on the Road S01E02 Sashimi 720p AMZN WEB-DL DDP2 0 H 264-NTb EZTV

Episode Breakdown
SmartLess: On the Road
SmartLess: On the Road TV Show S01E02

Season: 1
Episode: 2
Air Date: 23 May, 2023
Download Links
     Torrent Download     Magnet Download
     Anonymous Download
Added 8 months ago by eztv (verified).
Tracker Statistics
Seeds: 0
Peers: 1
Stats generated @ 19:37 on 24th May 2024
Torrent Info
Torrent File: Smartless.on.the.Road.S01E02.Sashimi.720p.AMZN.WEB-DL.DDP2.0.H.264-NTb[eztv.re].mkv
Torrent Hash: CA48C1D71D9C05305C4DC3E5E57991119244A4E2
Filesize: 1.36 GB
Released: 18th Sep 2023

File Format: MKV (Matroska)
Resolution: 1280x720 px
Aspect Ratio: 16:9
Alternate Releases S L
Smartless on the Road S01E02 1080p WEB H264-BIGDOC 3 0
Smartless on the Road S01E02 1080p HEVC x265-MeGusta 0 2
Smartless on the Road S01E02 XviD-AFG 1 0

SmartLess: On the Road S01E02 - Sashimi!

Summary:

Next stop: Boston. Will, Jason and Sean brave an ice storm for two shows in one night with special guests Conan O' Brien and MIT physicist Max Tegmark.



Smartless on the Road S01E02 Sashimi 720p AMZN WEB-DL DDP2 0 H 264-NTb EZTV
SmartLess: On the Road S1E2 Screenshot


General
Unique ID: 111939021196536716507600786963313807377 (0x5436ABD97351970E3BABF1C6808D5011)
Complete name: Smartless.on.the.Road.S01E02.Sashimi.720p.AMZN.WEB-DL.DDP2.0.H.264-NTb.mkv
Format: Matroska
Format version: Version 4
File size: 1.36 GiB
Duration: 42 min 31 s
Overall bit rate: 4 595 kb/s
Frame rate: 24.000 FPS
Writing application: mkvmerge v69.0.0 ('Day And Age') 64-bit
Writing library: libebml v1.4.2 + libmatroska v1.6.4

Video
ID: 1
Format: AVC
Format/Info: Advanced Video Codec
Format profile: [email protected]
Format settings: CABAC / 4 Ref Frames
Format settings, CABAC: Yes
Format settings, Reference frames: 4 frames
Codec ID: V_MPEG4/ISO/AVC
Duration: 42 min 31 s
Bit rate mode: Constant
Bit rate: 4 369 kb/s
Nominal bit rate: 6 000 kb/s
Width: 1 280 pixels
Height: 576 pixels
Display aspect ratio: 2.2:1
Frame rate mode: Constant
Frame rate: 24.000 FPS
Color space: YUV
Chroma subsampling: 4:2:0
Bit depth: 8 bits
Scan type: Progressive
Bits/(Pixel*Frame): 0.247
Stream size: 1.30 GiB (95%)
Default: Yes
Forced: No
Color range: Limited
Color primaries: BT.709
Transfer characteristics: BT.709
Matrix coefficients: BT.709

Audio
ID: 2
Format: E-AC-3
Format/Info: Enhanced AC-3
Commercial name: Dolby Digital Plus
Codec ID: A_EAC3
Duration: 42 min 31 s
Bit rate mode: Constant
Bit rate: 224 kb/s
Channel(s): 2 channels
Channel layout: L R
Sampling rate: 48.0 kHz
Frame rate: 31.250 FPS (1536 SPF)
Compression mode: Lossy
Stream size: 68.1 MiB (5%)
Language: English (US)
Service kind: Complete Main
Default: Yes
Forced: No

Text #1
ID: 3
Format: UTF-8
Codec ID: S_TEXT/UTF8
Codec ID/Info: UTF-8 Plain Text
Duration: 40 min 54 s
Bit rate: 103 b/s
Frame rate: 0.387 FPS
Count of elements: 951
Stream size: 30.9 KiB (0%)
Language: English
Default: No
Forced: No

Text #2
ID: 4
Format: UTF-8
Codec ID: S_TEXT/UTF8
Codec ID/Info: UTF-8 Plain Text
Duration: 41 min 4 s
Bit rate: 114 b/s
Frame rate: 0.413 FPS
Count of elements: 1017
Stream size: 34.4 KiB (0%)
Title: SDH
Language: English
Default: No
Forced: No
ssl  EZTV RSS EZTV Status | EZTV API | DMCA: [email protected]