eztvx.to | eztvstatus.org
Search title:  
TV Packs only
 

The Walking Dead Daryl Dixon S01E01 Lame Perdue 1080p AMZN WEB-DL DDP5 1 H 264-NTb EZTV

Episode Breakdown
The Walking Dead: Daryl Dixon
The Walking Dead: Daryl Dixon TV Show S01E01

Season: 1
Episode: 1
Air Date: 10 September, 2023
Download Links
     Torrent Download     Magnet Download
     Anonymous Download
Added 9 months ago by eztv (verified).
Tracker Statistics
Seeds: 10
Peers: 1
Stats generated @ 14:27 on 23rd Jun 2024
Torrent Info
Torrent File: The.Walking.Dead.Daryl.Dixon.S01E01.Lame.Perdue.1080p.AMZN.WEB-DL.DDP5.1.H.264-NTb[eztv.re].mkv
Torrent Hash: C1DAF5D40F278B5F3563916731887AD0F81C7CC5
Filesize: 4.08 GB
Released: 12th Sep 2023

File Format: MKV (Matroska)
Resolution: 1920x1080 px
Aspect Ratio: 16:9
Alternate Releases S L
The Walking Dead Daryl Dixon S01E01 1080p WEB h264-EDITH 57 13
The Walking Dead Daryl Dixon S01E01 720p WEB h264-EDITH 9 2
The Walking Dead Daryl Dixon S01E01 480p x264-mSD 35 8
The Walking Dead Daryl Dixon S01E01 720p HEVC x265-MeGusta 33 7
The Walking Dead Daryl Dixon S01E01 1080p HEVC x265-MeGusta 19 2
The Walking Dead Daryl Dixon S01E01 XviD-AFG 9 1
The Walking Dead Daryl Dixon S01E01 720p x264-FENiX 20 5

The Walking Dead: Daryl Dixon S01E01 - L'âme Perdue

Summary:

Following his departure from The Commonwealth, Daryl Dixon washes ashore in France, raising the ire of a splintered but growing autocratic movement centered in Paris and endangering a young boy at the heart of a benevolent religious movement.



The Walking Dead Daryl Dixon S01E01 Lame Perdue 1080p AMZN WEB-DL DDP5 1 H 264-NTb EZTV
The Walking Dead: Daryl Dixon S1E1 Screenshot


General
Unique ID: 95898440132574192150081907451101388151 (0x48255E24AD1E92A0F38C46E839F31D77)
Complete name: The.Walking.Dead.Daryl.Dixon.S01E01.Lame.Perdue.1080p.AMZN.WEB-DL.DDP5.1.H.264-NTb.mkv
Format: Matroska
Format version: Version 4
File size: 4.08 GiB
Duration: 59 min 25 s
Overall bit rate: 9 825 kb/s
Frame rate: 24.000 FPS
Writing application: mkvmerge v78.0 ('Running') 64-bit
Writing library: libebml v1.4.4 + libmatroska v1.7.1

Video
ID: 1
Format: AVC
Format/Info: Advanced Video Codec
Format profile: High@L4
Format settings: CABAC / 4 Ref Frames
Format settings, CABAC: Yes
Format settings, Reference frames: 4 frames
Codec ID: V_MPEG4/ISO/AVC
Duration: 59 min 25 s
Bit rate mode: Constant
Bit rate: 9 183 kb/s
Nominal bit rate: 10 000 kb/s
Width: 1 920 pixels
Height: 960 pixels
Display aspect ratio: 2.000
Frame rate mode: Constant
Frame rate: 24.000 FPS
Color space: YUV
Chroma subsampling: 4:2:0
Bit depth: 8 bits
Scan type: Progressive
Bits/(Pixel*Frame): 0.208
Stream size: 3.81 GiB (93%)
Default: Yes
Forced: No
Color range: Limited
Color primaries: BT.709
Transfer characteristics: BT.709
Matrix coefficients: BT.709

Audio
ID: 2
Format: E-AC-3
Format/Info: Enhanced AC-3
Commercial name: Dolby Digital Plus
Codec ID: A_EAC3
Duration: 59 min 25 s
Bit rate mode: Constant
Bit rate: 640 kb/s
Channel(s): 6 channels
Channel layout: L R C LFE Ls Rs
Sampling rate: 48.0 kHz
Frame rate: 31.250 FPS (1536 SPF)
Compression mode: Lossy
Stream size: 272 MiB (7%)
Language: English
Service kind: Complete Main
Default: Yes
Forced: No

Text #1
ID: 3
Format: UTF-8
Codec ID: S_TEXT/UTF8
Codec ID/Info: UTF-8 Plain Text
Duration: 58 min 10 s
Bit rate: 23 b/s
Frame rate: 0.102 FPS
Count of elements: 356
Stream size: 10.0 KiB (0%)
Language: English
Default: No
Forced: No

Text #2
ID: 4
Format: UTF-8
Codec ID: S_TEXT/UTF8
Codec ID/Info: UTF-8 Plain Text
Duration: 59 min 21 s
Bit rate: 29 b/s
Frame rate: 0.209 FPS
Count of elements: 745
Stream size: 12.9 KiB (0%)
Title: SDH
Language: English
Default: No
Forced: No

ssl  EZTV RSS EZTV Status | EZTV API | DMCA: [email protected]