eztvx.to | eztvstatus.org
Search title:  
TV Packs only
 

24 Hours in A and E S31E01 1080p WEB-DL x264-NGP EZTV

Episode Breakdown
24 heures de la vie d'une femme
24 heures de la vie d'une femme TV Show S31E01

Season: 31
Episode: 1
Download Links
     Torrent Download     Magnet Download
     Anonymous Download
Added 11 months ago by eztv (verified).
Tracker Statistics
Seeds: 0
Peers: 0
Stats generated @ 18:33 on 25th Jun 2024
Torrent Info
Torrent File: 24.Hours.in.A.and.E.S31E01.1080p.WEB-DL.x264-NGP[eztv.re].mp4
Torrent Hash: 281A6AC6CA7E0A450071DC669C601837C6FE27DF
Filesize: 1.02 GB
Released: 10th Jul 2023

File Format: MP4 (MPEG-4)
Resolution: 1920x1080 px
Aspect Ratio: 16:9
Alternate Releases S L
24 Hours in A and E S31E01 1080p HDTV H264-DARKFLiX 1 0
24 Hours in A and E S31E01 XviD-AFG 0 0
24 Hours in A and E S31E01 1080p HEVC x265-MeGusta 0 0

Episode Description
24 Hours in A and E S31E01 1080p WEB-DL x264-NGP EZTV
24 heures de la vie d'une femme S31E1 Screenshot


General
Complete name: 24.Hours.in.A.and.E.S31E01.1080p.WEB-DL.x264-NGP.mp4
Format: MPEG-4
Format profile: Base Media
Codec ID: isom (isom/iso2/avc1/mp41)
File size: 1.02 GiB
Duration: 46 min 37 s
Overall bit rate mode: Variable
Overall bit rate: 3 124 kb/s
Collection: 24 Hours in A&E
Season: 23
Track name: Series 31 Episode 1
Description: Kaeden's 16 and has a serious ongoing illness. And a woodworker has a sliced thumb
Writing application: Lavf60.3.100
Cover: Yes
Part_ID: 17

Video
ID: 1
Format: AVC
Format/Info: Advanced Video Codec
Format profile: [email protected]
Format settings: CABAC / 4 Ref Frames
Format settings, CABAC: Yes
Format settings, Reference frames: 4 frames
Codec ID: avc1
Codec ID/Info: Advanced Video Coding
Duration: 46 min 37 s
Duration_LastFrame: -38 ms
Bit rate mode: Variable
Bit rate: 2 989 kb/s
Nominal bit rate: 5 000 kb/s
Maximum bit rate: 3 750 kb/s
Width: 1 920 pixels
Height: 1 080 pixels
Display aspect ratio: 16:9
Frame rate mode: Constant
Frame rate: 25.000 FPS
Color space: YUV
Chroma subsampling: 4:2:0
Bit depth: 8 bits
Scan type: Progressive
Bits/(Pixel*Frame): 0.058
Stream size: 997 MiB (96%)
Writing library: x264 core 159
Encoding settings: cabac=1 / ref=3 / deblock=1:0:0 / analyse=0x3:0x113 / me=hex / subme=7 / psy=0 / mixed_ref=1 / me_range=16 / chroma_me=1 / trellis=1 / 8x8dct=1 / cqm=0 / deadzone=21,11 / fast_pskip=1 / chroma_qp_offset=0 / threads=32 / lookahead_threads=5 / sliced_threads=0 / nr=0 / decimate=1 / interlaced=tff / bluray_compat=0 / constrained_intra=0 / bframes=3 / b_pyramid=2 / b_adapt=1 / b_bias=0 / direct=1 / weightb=1 / open_gop=0 / weightp=0 / keyint=250 / keyint_min=25 / scenecut=40 / intra_refresh=0 / rc_lookahead=40 / rc=cbr / mbtree=1 / bitrate=5000 / ratetol=1.0 / qcomp=0.60 / qpmin=0 / qpmax=51 / qpstep=4 / vbv_maxrate=5000 / vbv_bufsize=4000 / nal_hrd=none / filler=0 / ip_ratio=1.40 / aq=1:0.00
Color range: Limited
Color primaries: BT.709
Transfer characteristics: BT.709
Matrix coefficients: BT.709
Codec configuration box: avcC

Audio
ID: 3
Format: AAC LC
Format/Info: Advanced Audio Codec Low Complexity
Codec ID: mp4a-40-2
Duration: 46 min 37 s
Source duration: 46 min 37 s
Bit rate mode: Constant
Bit rate: 128 kb/s
Channel(s): 2 channels
Channel layout: L R
Sampling rate: 48.0 kHz
Frame rate: 46.875 FPS (1024 SPF)
Compression mode: Lossy
Stream size: 42.7 MiB (4%)
Source stream size: 42.7 MiB (4%)
Title: English
Language: English
Default: Yes
Alternate group: 1

Text
ID: 4
Format: Timed Text
Muxing mode: sbtl
Codec ID: tx3g
Duration: 46 min 31 s
Bit rate mode: Variable
Bit rate: 98 b/s
Frame rate: 0.584 FPS
Stream size: 33.4 KiB (0%)
Title: English
Language: English
Default: Yes
Forced: No
Alternate group: 3
ssl  EZTV RSS EZTV Status | EZTV API | DMCA: [email protected]