eztvx.to | eztvstatus.org
Search title:  
TV Packs only
 

Prehistoric Planet 2022 S02E02 Badlands 1080p ATVP WEBRip DDP5 1 x264-NTb EZTV

Episode Breakdown
Prehistoric Planet
Prehistoric Planet TV Show S02E02

Season: 2
Episode: 2
Air Date: 23 May, 2023
Download Links
     Torrent Download     Magnet Download
     Anonymous Download
Added 10 months ago by eztv (verified).
Tracker Statistics
Seeds: 2
Peers: 10
Stats generated @ 09:21 on 18th Apr 2024
Torrent Info
Torrent File: Prehistoric.Planet.2022.S02E02.Badlands.1080p.ATVP.WEB-DL.DDP5.1.H264-NTb[eztv.re].mkv
Torrent Hash: EA2599B39FAB6175D339D4357E79D125B2E4D47F
Filesize: 3.46 GB
Released: 24th May 2023

File Format: MKV (Matroska)
Resolution: 1920x1080 px
Aspect Ratio: 16:9
Alternate Releases S L
Prehistoric Planet 2022 S02E02 1080p WEB H264-CAKES 11 2
Prehistoric Planet 2022 S02E02 XviD-AFG 3 7
Prehistoric Planet 2022 S02E02 1080p HEVC x265-MeGusta 7 7
Prehistoric Planet 2022 S02E02 Badlands 720p ATVP WEBRip DDP5 1 x264-NTb 5 12
Prehistoric Planet 2022 S02E02 DOC MULTI 1080p WEB H264-Penrose 3 1
Prehistoric Planet 2022 S02E02 480p x264-mSD 7 1
Prehistoric Planet 2022 S02E02 720p HEVC x265-MeGusta 3 0

Prehistoric Planet S02E02 - Badlands

Summary:

Trudging through a scorching desert, two young Tarchia find relief at an oasis and encounter an adult twice their size, ready to lay claim.



Prehistoric Planet 2022 S02E02 Badlands 1080p ATVP WEBRip DDP5 1 x264-NTb EZTV
Prehistoric Planet S2E2 Screenshot


General
Unique ID: 80978764080251229170203905301948380008 (0x3CEBF1522D295393ABA6B8685AFBB368)
Complete name: Prehistoric.Planet.2022.S02E02.Badlands.1080p.ATVP.WEB-DL.DDP5.1.H264-NTb.mkv
Format: Matroska
Format version: Version 4
File size: 3.46 GiB
Duration: 46 min 0 s
Overall bit rate: 10.8 Mb/s
Writing application: mkvmerge v75.0.0 ('Goliath') 64-bit
Writing library: libebml v1.4.4 + libmatroska v1.7.1
Cover: Yes
Attachments: small_cover.jpg / cover.jpg / cover_land.jpg / small_cover_land.jpg

Video
ID: 1
Format: AVC
Format/Info: Advanced Video Codec
Format profile: High@L4
Format settings: CABAC / 4 Ref Frames
Format settings, CABAC: Yes
Format settings, Reference frames: 4 frames
Codec ID: V_MPEG4/ISO/AVC
Duration: 46 min 0 s
Bit rate: 9 985 kb/s
Width: 1 920 pixels
Height: 1 080 pixels
Display aspect ratio: 16:9
Frame rate mode: Constant
Frame rate: 23.976 (24000/1001) FPS
Color space: YUV
Chroma subsampling: 4:2:0
Bit depth: 8 bits
Scan type: Progressive
Bits/(Pixel*Frame): 0.201
Stream size: 3.21 GiB (93%)
Default: Yes
Forced: No
Color range: Limited
Color primaries: BT.709
Transfer characteristics: BT.709
Matrix coefficients: BT.709

Audio
ID: 2
Format: E-AC-3 JOC
Format/Info: Enhanced AC-3 with Joint Object Coding
Commercial name: Dolby Digital Plus with Dolby Atmos
Codec ID: A_EAC3
Duration: 46 min 0 s
Bit rate mode: Constant
Bit rate: 768 kb/s
Channel(s): 6 channels
Channel layout: L R C LFE Ls Rs
Sampling rate: 48.0 kHz
Frame rate: 31.250 FPS (1536 SPF)
Compression mode: Lossy
Stream size: 253 MiB (7%)
Language: English
Service kind: Complete Main
Default: Yes
Forced: No
Complexity index: 16
Number of dynamic objects: 15
Bed channel count: 1 channel
Bed channel configuration: LFE

Text #1
ID: 3
Format: UTF-8
Codec ID: S_TEXT/UTF8
Codec ID/Info: UTF-8 Plain Text
Duration: 43 min 11 s
Bit rate: 40 b/s
Frame rate: 0.112 FPS
Count of elements: 291
Stream size: 12.8 KiB (0%)
Language: English
Default: No
Forced: No

Text #2
ID: 4
Format: UTF-8
Codec ID: S_TEXT/UTF8
Codec ID/Info: UTF-8 Plain Text
Duration: 43 min 11 s
Bit rate: 43 b/s
Frame rate: 0.134 FPS
Count of elements: 348
Stream size: 13.9 KiB (0%)
Title: SDH
Language: English
Default: No
Forced: No

Text #3
ID: 5
Format: UTF-8
Codec ID: S_TEXT/UTF8
Codec ID/Info: UTF-8 Plain Text
Duration: 45 min 44 s
Bit rate: 59 b/s
Frame rate: 0.108 FPS
Count of elements: 297
Stream size: 20.1 KiB (0%)
Language: Arabic
Default: No
Forced: No

Text #4
ID: 6
Format: UTF-8
Codec ID: S_TEXT/UTF8
Codec ID/Info: UTF-8 Plain Text
Duration: 45 min 44 s
Bit rate: 65 b/s
Frame rate: 0.103 FPS
Count of elements: 284
Stream size: 22.1 KiB (0%)
Language: Bulgarian
Default: No
Forced: No

Text #5
ID: 7
Format: UTF-8
Codec ID: S_TEXT/UTF8
Codec ID/Info: UTF-8 Plain Text
Duration: 45 min 44 s
Bit rate: 34 b/s
Frame rate: 0.109 FPS
Count of elements: 299
Stream size: 11.6 KiB (0%)
Title: Chinese (Simplified)
Language: Mandarin (Hans)
Default: No
Forced: No

Text #6
ID: 8
Format: UTF-8
Codec ID: S_TEXT/UTF8
Codec ID/Info: UTF-8 Plain Text
Duration: 45 min 44 s
Bit rate: 31 b/s
Frame rate: 0.109 FPS
Count of elements: 300
Stream size: 10.7 KiB (0%)
Title: Chinese (Traditional)
Language: Mandarin (Hant)
Default: No
Forced: No

Text #7
ID: 9
Format: UTF-8
Codec ID: S_TEXT/UTF8
Codec ID/Info: UTF-8 Plain Text
Duration: 45 min 44 s
Bit rate: 40 b/s
Frame rate: 0.101 FPS
Count of elements: 277
Stream size: 13.7 KiB (0%)
Language: Czech
Default: No
Forced: No

Text #8
ID: 10
Format: UTF-8
Codec ID: S_TEXT/UTF8
Codec ID/Info: UTF-8 Plain Text
Duration: 45 min 44 s
Bit rate: 38 b/s
Frame rate: 0.100 FPS
Count of elements: 274
Stream size: 12.9 KiB (0%)
Language: Danish
Default: No
Forced: No

Text #9
ID: 11
Format: UTF-8
Codec ID: S_TEXT/UTF8
Codec ID/Info: UTF-8 Plain Text
Duration: 43 min 38 s
Bit rate: 45 b/s
Frame rate: 0.116 FPS
Count of elements: 304
Stream size: 14.6 KiB (0%)
Language: German
Default: No
Forced: No

Text #10
ID: 12
Format: UTF-8
Codec ID: S_TEXT/UTF8
Codec ID/Info: UTF-8 Plain Text
Duration: 45 min 44 s
Bit rate: 73 b/s
Frame rate: 0.107 FPS
Count of elements: 295
Stream size: 24.5 KiB (0%)
Language: Greek
Default: No
Forced: No

Text #11
ID: 13
Format: UTF-8
Codec ID: S_TEXT/UTF8
Codec ID/Info: UTF-8 Plain Text
Duration: 45 min 44 s
Bit rate: 43 b/s
Frame rate: 0.116 FPS
Count of elements: 318
Stream size: 14.7 KiB (0%)
Title: Spanish (Latin America)
Language: Spanish (Latin America)
Default: No
Forced: No

Text #12
ID: 14
Format: UTF-8
Codec ID: S_TEXT/UTF8
Codec ID/Info: UTF-8 Plain Text
Duration: 45 min 44 s
Bit rate: 42 b/s
Frame rate: 0.114 FPS
Count of elements: 313
Stream size: 14.2 KiB (0%)
Title: Spanish (Spain)
Language: Spanish (ES)
Default: No
Forced: No

Text #13
ID: 15
Format: UTF-8
Codec ID: S_TEXT/UTF8
Codec ID/Info: UTF-8 Plain Text
Duration: 45 min 44 s
Bit rate: 37 b/s
Frame rate: 0.104 FPS
Count of elements: 286
Stream size: 12.4 KiB (0%)
Language: Estonian
Default: No
Forced: No

Text #14
ID: 16
Format: UTF-8
Codec ID: S_TEXT/UTF8
Codec ID/Info: UTF-8 Plain Text
Duration: 45 min 44 s
Bit rate: 38 b/s
Frame rate: 0.108 FPS
Count of elements: 296
Stream size: 13.0 KiB (0%)
Language: Finnish
Default: No
Forced: No

Text #15
ID: 17
Format: UTF-8
Codec ID: S_TEXT/UTF8
Codec ID/Info: UTF-8 Plain Text
Duration: 43 min 26 s
Bit rate: 45 b/s
Frame rate: 0.139 FPS
Count of elements: 363
Stream size: 14.3 KiB (0%)
Title: French (Canada)
Language: French (CA)
Default: No
Forced: No

Text #16
ID: 18
Format: UTF-8
Codec ID: S_TEXT/UTF8
Codec ID/Info: UTF-8 Plain Text
Duration: 43 min 26 s
Bit rate: 45 b/s
Frame rate: 0.139 FPS
Count of elements: 363
Stream size: 14.3 KiB (0%)
Title: French (France)
Language: French (FR)
Default: No
Forced: No

Text #17
ID: 19
Format: UTF-8
Codec ID: S_TEXT/UTF8
Codec ID/Info: UTF-8 Plain Text
Duration: 45 min 44 s
Bit rate: 54 b/s
Frame rate: 0.109 FPS
Count of elements: 299
Stream size: 18.1 KiB (0%)
Language: Hebrew
Default: No
Forced: No

Text #18
ID: 20
Format: UTF-8
Codec ID: S_TEXT/UTF8
Codec ID/Info: UTF-8 Plain Text
Duration: 45 min 44 s
Bit rate: 109 b/s
Frame rate: 0.109 FPS
Count of elements: 300
Stream size: 36.7 KiB (0%)
Language: Hindi
Default: No
Forced: No

Text #19
ID: 21
Format: UTF-8
Codec ID: S_TEXT/UTF8
Codec ID/Info: UTF-8 Plain Text
Duration: 45 min 44 s
Bit rate: 44 b/s
Frame rate: 0.109 FPS
Count of elements: 300
Stream size: 14.8 KiB (0%)
Language: Hungarian
Default: No
Forced: No

Text #20
ID: 22
Format: UTF-8
Codec ID: S_TEXT/UTF8
Codec ID/Info: UTF-8 Plain Text
Duration: 45 min 44 s
Bit rate: 41 b/s
Frame rate: 0.109 FPS
Count of elements: 299
Stream size: 13.9 KiB (0%)
Language: Indonesian
Default: No
Forced: No

Text #21
ID: 23
Format: UTF-8
Codec ID: S_TEXT/UTF8
Codec ID/Info: UTF-8 Plain Text
Duration: 45 min 46 s
Bit rate: 44 b/s
Frame rate: 0.112 FPS
Count of elements: 308
Stream size: 14.8 KiB (0%)
Language: Italian
Default: No
Forced: No

Text #22
ID: 24
Format: UTF-8
Codec ID: S_TEXT/UTF8
Codec ID/Info: UTF-8 Plain Text
Duration: 45 min 50 s
Bit rate: 39 b/s
Frame rate: 0.101 FPS
Count of elements: 277
Stream size: 13.1 KiB (0%)
Language: Japanese
Default: No
Forced: No

Text #23
ID: 25
Format: UTF-8
Codec ID: S_TEXT/UTF8
Codec ID/Info: UTF-8 Plain Text
Duration: 45 min 44 s
Bit rate: 44 b/s
Frame rate: 0.109 FPS
Count of elements: 300
Stream size: 14.9 KiB (0%)
Language: Korean
Default: No
Forced: No

Text #24
ID: 26
Format: UTF-8
Codec ID: S_TEXT/UTF8
Codec ID/Info: UTF-8 Plain Text
Duration: 45 min 44 s
Bit rate: 39 b/s
Frame rate: 0.109 FPS
Count of elements: 299
Stream size: 13.4 KiB (0%)
Language: Lithuanian
Default: No
Forced: No

Text #25
ID: 27
Format: UTF-8
Codec ID: S_TEXT/UTF8
Codec ID/Info: UTF-8 Plain Text
Duration: 45 min 44 s
Bit rate: 40 b/s
Frame rate: 0.107 FPS
Count of elements: 295
Stream size: 13.5 KiB (0%)
Language: Latvian
Default: No
Forced: No

Text #26
ID: 28
Format: UTF-8
Codec ID: S_TEXT/UTF8
Codec ID/Info: UTF-8 Plain Text
Duration: 45 min 44 s
Bit rate: 39 b/s
Frame rate: 0.109 FPS
Count of elements: 299
Stream size: 13.1 KiB (0%)
Language: Malay
Default: No
Forced: No

Text #27
ID: 29
Format: UTF-8
Codec ID: S_TEXT/UTF8
Codec ID/Info: UTF-8 Plain Text
Duration: 45 min 44 s
Bit rate: 40 b/s
Frame rate: 0.099 FPS
Count of elements: 272
Stream size: 13.7 KiB (0%)
Language: Dutch
Default: No
Forced: No

Text #28
ID: 30
Format: UTF-8
Codec ID: S_TEXT/UTF8
Codec ID/Info: UTF-8 Plain Text
Duration: 45 min 44 s
Bit rate: 36 b/s
Frame rate: 0.095 FPS
Count of elements: 261
Stream size: 12.2 KiB (0%)
Language: Norwegian
Default: No
Forced: No

Text #29
ID: 31
Format: UTF-8
Codec ID: S_TEXT/UTF8
Codec ID/Info: UTF-8 Plain Text
Duration: 45 min 44 s
Bit rate: 39 b/s
Frame rate: 0.106 FPS
Count of elements: 291
Stream size: 13.2 KiB (0%)
Language: Polish
Default: No
Forced: No

Text #30
ID: 32
Format: UTF-8
Codec ID: S_TEXT/UTF8
Codec ID/Info: UTF-8 Plain Text
Duration: 45 min 44 s
Bit rate: 41 b/s
Frame rate: 0.109 FPS
Count of elements: 298
Stream size: 13.8 KiB (0%)
Title: Portuguese
Language: Portuguese
Default: No
Forced: No

Text #31
ID: 33
Format: UTF-8
Codec ID: S_TEXT/UTF8
Codec ID/Info: UTF-8 Plain Text
Duration: 45 min 44 s
Bit rate: 41 b/s
Frame rate: 0.109 FPS
Count of elements: 299
Stream size: 13.9 KiB (0%)
Title: Portuguese (Brazil)
Language: Portuguese (BR)
Default: No
Forced: No

Text #32
ID: 34
Format: UTF-8
Codec ID: S_TEXT/UTF8
Codec ID/Info: UTF-8 Plain Text
Duration: 45 min 44 s
Bit rate: 72 b/s
Frame rate: 0.111 FPS
Count of elements: 306
Stream size: 24.2 KiB (0%)
Language: Russian
Default: No
Forced: No

Text #33
ID: 35
Format: UTF-8
Codec ID: S_TEXT/UTF8
Codec ID/Info: UTF-8 Plain Text
Duration: 45 min 44 s
Bit rate: 38 b/s
Frame rate: 0.107 FPS
Count of elements: 293
Stream size: 12.9 KiB (0%)
Language: Slovak
Default: No
Forced: No

Text #34
ID: 36
Format: UTF-8
Codec ID: S_TEXT/UTF8
Codec ID/Info: UTF-8 Plain Text
Duration: 45 min 44 s
Bit rate: 35 b/s
Frame rate: 0.106 FPS
Count of elements: 290
Stream size: 11.8 KiB (0%)
Language: Slovenian
Default: No
Forced: No

Text #35
ID: 37
Format: UTF-8
Codec ID: S_TEXT/UTF8
Codec ID/Info: UTF-8 Plain Text
Duration: 45 min 44 s
Bit rate: 36 b/s
Frame rate: 0.096 FPS
Count of elements: 263
Stream size: 12.1 KiB (0%)
Language: Swedish
Default: No
Forced: No

Text #36
ID: 38
Format: UTF-8
Codec ID: S_TEXT/UTF8
Codec ID/Info: UTF-8 Plain Text
Duration: 45 min 44 s
Bit rate: 132 b/s
Frame rate: 0.109 FPS
Count of elements: 299
Stream size: 44.4 KiB (0%)
Language: Tamil
Default: No
Forced: No

Text #37
ID: 39
Format: UTF-8
Codec ID: S_TEXT/UTF8
Codec ID/Info: UTF-8 Plain Text
Duration: 45 min 44 s
Bit rate: 122 b/s
Frame rate: 0.109 FPS
Count of elements: 299
Stream size: 40.9 KiB (0%)
Language: Telugu
Default: No
Forced: No

Text #38
ID: 40
Format: UTF-8
Codec ID: S_TEXT/UTF8
Codec ID/Info: UTF-8 Plain Text
Duration: 45 min 44 s
Bit rate: 105 b/s
Frame rate: 0.109 FPS
Count of elements: 299
Stream size: 35.5 KiB (0%)
Language: Thai
Default: No
Forced: No

Text #39
ID: 41
Format: UTF-8
Codec ID: S_TEXT/UTF8
Codec ID/Info: UTF-8 Plain Text
Duration: 45 min 44 s
Bit rate: 42 b/s
Frame rate: 0.109 FPS
Count of elements: 299
Stream size: 14.1 KiB (0%)
Language: Turkish
Default: No
Forced: No

Text #40
ID: 42
Format: UTF-8
Codec ID: S_TEXT/UTF8
Codec ID/Info: UTF-8 Plain Text
Duration: 45 min 44 s
Bit rate: 63 b/s
Frame rate: 0.109 FPS
Count of elements: 300
Stream size: 21.3 KiB (0%)
Language: Ukrainian
Default: No
Forced: No

Text #41
ID: 43
Format: UTF-8
Codec ID: S_TEXT/UTF8
Codec ID/Info: UTF-8 Plain Text
Duration: 45 min 44 s
Bit rate: 52 b/s
Frame rate: 0.109 FPS
Count of elements: 300
Stream size: 17.7 KiB (0%)
Language: Vietnamese
Default: No
Forced: No

Text #42
ID: 44
Format: UTF-8
Codec ID: S_TEXT/UTF8
Codec ID/Info: UTF-8 Plain Text
Duration: 45 min 44 s
Bit rate: 31 b/s
Frame rate: 0.109 FPS
Count of elements: 300
Stream size: 10.4 KiB (0%)
Title: Cantonese (Traditional)
Language: Cantonese (Hant)
Default: No
Forced: No

Menu
00:00:00.000: en:Chapter 1
00:00:08.375: en:Intro
00:01:51.041: en:Chapter 2
ssl  EZTV RSS EZTV Status | EZTV API | DMCA: [email protected]