eztvx.to | eztvstatus.org
Search title:  
TV Packs only
 

Prehistoric Planet 2022 S02E03 Swamps 720p ATVP WEBRip DDP5 1 x264-NTb EZTV

Episode Breakdown
Prehistoric Planet
Prehistoric Planet TV Show S02E03

Season: 2
Episode: 3
Air Date: 24 May, 2023
Download Links
     Torrent Download     Magnet Download
     Anonymous Download
Added 1 year ago by eztv (verified).
Tracker Statistics
Seeds: 0
Peers: 0
Stats generated @ 15:44 on 27th May 2024
Torrent Info
Torrent File: Prehistoric.Planet.2022.S02E03.Swamps.720p.ATVP.WEB-DL.DDP5.1.H.264-NTb[eztv.re].mkv
Torrent Hash: 88A33DC18432D1A984232E0AEDCC6A29E10ABAB2
Filesize: 992 MB
Released: 24th May 2023

File Format: MKV (Matroska)
Resolution: 1280x720 px
Aspect Ratio: 16:9
Alternate Releases S L
Prehistoric Planet 2022 S02E03 1080p WEB H264-CAKES 11 0
Prehistoric Planet 2022 S02E03 XviD-AFG 2 0
Prehistoric Planet 2022 S02E03 1080p HEVC x265-MeGusta 8 0
Prehistoric Planet 2022 S02E03 Swamps 1080p ATVP WEBRip DDP5 1 x264-NTb 9 1
Prehistoric Planet 2022 S02E03 DOC MULTI 1080p WEB H264-Penrose 0 2
Prehistoric Planet 2022 S02E03 480p x264-mSD 16 4
Prehistoric Planet 2022 S02E03 720p HEVC x265-MeGusta 6 1

Prehistoric Planet S02E03 - Swamps

Summary:

In a drought-stricken basin where much has perished, an old Pachycephalosaurus bull defends his leadership against a young challenger.



Prehistoric Planet 2022 S02E03 Swamps 720p ATVP WEBRip DDP5 1 x264-NTb EZTV
Prehistoric Planet S2E3 Screenshot


General
Unique ID: 230579063318572554776819946487829262348 (0xAD77E989D5003338F41673035F44700C)
Complete name: Prehistoric.Planet.2022.S02E03.Swamps.720p.ATVP.WEB-DL.DDP5.1.H.264-NTb.mkv
Format: Matroska
Format version: Version 4
File size: 992 MiB
Duration: 38 min 55 s
Overall bit rate: 3 562 kb/s
Writing application: mkvmerge v75.0.0 ('Goliath') 64-bit
Writing library: libebml v1.4.4 + libmatroska v1.7.1

Video
ID: 1
Format: AVC
Format/Info: Advanced Video Codec
Format profile: [email protected]
Format settings: CABAC / 5 Ref Frames
Format settings, CABAC: Yes
Format settings, Reference frames: 5 frames
Codec ID: V_MPEG4/ISO/AVC
Duration: 38 min 55 s
Bit rate: 2 789 kb/s
Width: 1 280 pixels
Height: 720 pixels
Display aspect ratio: 16:9
Frame rate mode: Constant
Frame rate: 23.976 (24000/1001) FPS
Color space: YUV
Chroma subsampling: 4:2:0
Bit depth: 8 bits
Scan type: Progressive
Bits/(Pixel*Frame): 0.126
Stream size: 776 MiB (78%)
Default: Yes
Forced: No
Color range: Limited
Color primaries: BT.709
Transfer characteristics: BT.709
Matrix coefficients: BT.709

Audio
ID: 2
Format: E-AC-3 JOC
Format/Info: Enhanced AC-3 with Joint Object Coding
Commercial name: Dolby Digital Plus with Dolby Atmos
Codec ID: A_EAC3
Duration: 38 min 55 s
Bit rate mode: Constant
Bit rate: 768 kb/s
Channel(s): 6 channels
Channel layout: L R C LFE Ls Rs
Sampling rate: 48.0 kHz
Frame rate: 31.250 FPS (1536 SPF)
Compression mode: Lossy
Stream size: 214 MiB (22%)
Language: English
Service kind: Complete Main
Default: Yes
Forced: No
Complexity index: 16
Number of dynamic objects: 15
Bed channel count: 1 channel
Bed channel configuration: LFE

Text #1
ID: 3
Format: UTF-8
Codec ID: S_TEXT/UTF8
Codec ID/Info: UTF-8 Plain Text
Duration: 36 min 3 s
Bit rate: 37 b/s
Frame rate: 0.106 FPS
Count of elements: 230
Stream size: 9.90 KiB (0%)
Language: English
Default: No
Forced: No

Text #2
ID: 4
Format: UTF-8
Codec ID: S_TEXT/UTF8
Codec ID/Info: UTF-8 Plain Text
Duration: 36 min 3 s
Bit rate: 40 b/s
Frame rate: 0.134 FPS
Count of elements: 291
Stream size: 10.8 KiB (0%)
Title: SDH
Language: English
Default: No
Forced: No

Text #3
ID: 5
Format: UTF-8
Codec ID: S_TEXT/UTF8
Codec ID/Info: UTF-8 Plain Text
Duration: 38 min 39 s
Bit rate: 54 b/s
Frame rate: 0.102 FPS
Count of elements: 237
Stream size: 15.3 KiB (0%)
Language: Arabic
Default: No
Forced: No

Text #4
ID: 6
Format: UTF-8
Codec ID: S_TEXT/UTF8
Codec ID/Info: UTF-8 Plain Text
Duration: 38 min 39 s
Bit rate: 57 b/s
Frame rate: 0.097 FPS
Count of elements: 226
Stream size: 16.3 KiB (0%)
Language: Bulgarian
Default: No
Forced: No

Text #5
ID: 7
Format: UTF-8
Codec ID: S_TEXT/UTF8
Codec ID/Info: UTF-8 Plain Text
Duration: 38 min 39 s
Bit rate: 31 b/s
Frame rate: 0.102 FPS
Count of elements: 237
Stream size: 8.92 KiB (0%)
Title: Chinese (Simplified)
Language: Mandarin (Hans)
Default: No
Forced: No

Text #6
ID: 8
Format: UTF-8
Codec ID: S_TEXT/UTF8
Codec ID/Info: UTF-8 Plain Text
Duration: 38 min 39 s
Bit rate: 29 b/s
Frame rate: 0.103 FPS
Count of elements: 238
Stream size: 8.27 KiB (0%)
Title: Chinese (Traditional)
Language: Mandarin (Hant)
Default: No
Forced: No

Text #7
ID: 9
Format: UTF-8
Codec ID: S_TEXT/UTF8
Codec ID/Info: UTF-8 Plain Text
Duration: 38 min 39 s
Bit rate: 37 b/s
Frame rate: 0.098 FPS
Count of elements: 227
Stream size: 10.6 KiB (0%)
Language: Czech
Default: No
Forced: No

Text #8
ID: 10
Format: UTF-8
Codec ID: S_TEXT/UTF8
Codec ID/Info: UTF-8 Plain Text
Duration: 38 min 39 s
Bit rate: 34 b/s
Frame rate: 0.094 FPS
Count of elements: 219
Stream size: 9.71 KiB (0%)
Language: Danish
Default: No
Forced: No

Text #9
ID: 11
Format: UTF-8
Codec ID: S_TEXT/UTF8
Codec ID/Info: UTF-8 Plain Text
Duration: 36 min 33 s
Bit rate: 42 b/s
Frame rate: 0.113 FPS
Count of elements: 247
Stream size: 11.3 KiB (0%)
Language: German
Default: No
Forced: No

Text #10
ID: 12
Format: UTF-8
Codec ID: S_TEXT/UTF8
Codec ID/Info: UTF-8 Plain Text
Duration: 38 min 39 s
Bit rate: 64 b/s
Frame rate: 0.102 FPS
Count of elements: 236
Stream size: 18.2 KiB (0%)
Language: Greek
Default: No
Forced: No

Text #11
ID: 13
Format: UTF-8
Codec ID: S_TEXT/UTF8
Codec ID/Info: UTF-8 Plain Text
Duration: 38 min 39 s
Bit rate: 40 b/s
Frame rate: 0.113 FPS
Count of elements: 261
Stream size: 11.4 KiB (0%)
Title: Spanish (Latin America)
Language: Spanish (Latin America)
Default: No
Forced: No

Text #12
ID: 14
Format: UTF-8
Codec ID: S_TEXT/UTF8
Codec ID/Info: UTF-8 Plain Text
Duration: 38 min 39 s
Bit rate: 36 b/s
Frame rate: 0.105 FPS
Count of elements: 244
Stream size: 10.4 KiB (0%)
Title: Spanish (Spain)
Language: Spanish (ES)
Default: No
Forced: No

Text #13
ID: 15
Format: UTF-8
Codec ID: S_TEXT/UTF8
Codec ID/Info: UTF-8 Plain Text
Duration: 38 min 39 s
Bit rate: 33 b/s
Frame rate: 0.098 FPS
Count of elements: 228
Stream size: 9.44 KiB (0%)
Language: Estonian
Default: No
Forced: No

Text #14
ID: 16
Format: UTF-8
Codec ID: S_TEXT/UTF8
Codec ID/Info: UTF-8 Plain Text
Duration: 38 min 39 s
Bit rate: 34 b/s
Frame rate: 0.101 FPS
Count of elements: 235
Stream size: 9.91 KiB (0%)
Language: Finnish
Default: No
Forced: No

Text #15
ID: 17
Format: UTF-8
Codec ID: S_TEXT/UTF8
Codec ID/Info: UTF-8 Plain Text
Duration: 36 min 21 s
Bit rate: 43 b/s
Frame rate: 0.130 FPS
Count of elements: 283
Stream size: 11.5 KiB (0%)
Title: French (Canada)
Language: French (CA)
Default: No
Forced: No

Text #16
ID: 18
Format: UTF-8
Codec ID: S_TEXT/UTF8
Codec ID/Info: UTF-8 Plain Text
Duration: 36 min 21 s
Bit rate: 43 b/s
Frame rate: 0.130 FPS
Count of elements: 283
Stream size: 11.5 KiB (0%)
Title: French (France)
Language: French (FR)
Default: No
Forced: No

Text #17
ID: 19
Format: UTF-8
Codec ID: S_TEXT/UTF8
Codec ID/Info: UTF-8 Plain Text
Duration: 38 min 39 s
Bit rate: 47 b/s
Frame rate: 0.102 FPS
Count of elements: 237
Stream size: 13.6 KiB (0%)
Language: Hebrew
Default: No
Forced: No

Text #18
ID: 20
Format: UTF-8
Codec ID: S_TEXT/UTF8
Codec ID/Info: UTF-8 Plain Text
Duration: 38 min 39 s
Bit rate: 98 b/s
Frame rate: 0.103 FPS
Count of elements: 238
Stream size: 27.8 KiB (0%)
Language: Hindi
Default: No
Forced: No

Text #19
ID: 21
Format: UTF-8
Codec ID: S_TEXT/UTF8
Codec ID/Info: UTF-8 Plain Text
Duration: 38 min 39 s
Bit rate: 39 b/s
Frame rate: 0.103 FPS
Count of elements: 238
Stream size: 11.3 KiB (0%)
Language: Hungarian
Default: No
Forced: No

Text #20
ID: 22
Format: UTF-8
Codec ID: S_TEXT/UTF8
Codec ID/Info: UTF-8 Plain Text
Duration: 38 min 39 s
Bit rate: 37 b/s
Frame rate: 0.101 FPS
Count of elements: 234
Stream size: 10.7 KiB (0%)
Language: Indonesian
Default: No
Forced: No

Text #21
ID: 23
Format: UTF-8
Codec ID: S_TEXT/UTF8
Codec ID/Info: UTF-8 Plain Text
Duration: 38 min 40 s
Bit rate: 40 b/s
Frame rate: 0.104 FPS
Count of elements: 241
Stream size: 11.4 KiB (0%)
Language: Italian
Default: No
Forced: No

Text #22
ID: 24
Format: UTF-8
Codec ID: S_TEXT/UTF8
Codec ID/Info: UTF-8 Plain Text
Duration: 38 min 45 s
Bit rate: 35 b/s
Frame rate: 0.097 FPS
Count of elements: 225
Stream size: 10.0 KiB (0%)
Language: Japanese
Default: No
Forced: No

Text #23
ID: 25
Format: UTF-8
Codec ID: S_TEXT/UTF8
Codec ID/Info: UTF-8 Plain Text
Duration: 38 min 39 s
Bit rate: 41 b/s
Frame rate: 0.103 FPS
Count of elements: 238
Stream size: 11.8 KiB (0%)
Language: Korean
Default: No
Forced: No

Text #24
ID: 26
Format: UTF-8
Codec ID: S_TEXT/UTF8
Codec ID/Info: UTF-8 Plain Text
Duration: 38 min 39 s
Bit rate: 36 b/s
Frame rate: 0.102 FPS
Count of elements: 237
Stream size: 10.2 KiB (0%)
Language: Lithuanian
Default: No
Forced: No

Text #25
ID: 27
Format: UTF-8
Codec ID: S_TEXT/UTF8
Codec ID/Info: UTF-8 Plain Text
Duration: 38 min 39 s
Bit rate: 37 b/s
Frame rate: 0.100 FPS
Count of elements: 232
Stream size: 10.5 KiB (0%)
Language: Latvian
Default: No
Forced: No

Text #26
ID: 28
Format: UTF-8
Codec ID: S_TEXT/UTF8
Codec ID/Info: UTF-8 Plain Text
Duration: 38 min 39 s
Bit rate: 34 b/s
Frame rate: 0.102 FPS
Count of elements: 237
Stream size: 9.80 KiB (0%)
Language: Malay
Default: No
Forced: No

Text #27
ID: 29
Format: UTF-8
Codec ID: S_TEXT/UTF8
Codec ID/Info: UTF-8 Plain Text
Duration: 38 min 39 s
Bit rate: 37 b/s
Frame rate: 0.094 FPS
Count of elements: 217
Stream size: 10.5 KiB (0%)
Language: Dutch
Default: No
Forced: No

Text #28
ID: 30
Format: UTF-8
Codec ID: S_TEXT/UTF8
Codec ID/Info: UTF-8 Plain Text
Duration: 38 min 39 s
Bit rate: 32 b/s
Frame rate: 0.093 FPS
Count of elements: 216
Stream size: 9.31 KiB (0%)
Language: Norwegian
Default: No
Forced: No

Text #29
ID: 31
Format: UTF-8
Codec ID: S_TEXT/UTF8
Codec ID/Info: UTF-8 Plain Text
Duration: 38 min 39 s
Bit rate: 35 b/s
Frame rate: 0.099 FPS
Count of elements: 229
Stream size: 10.2 KiB (0%)
Language: Polish
Default: No
Forced: No

Text #30
ID: 32
Format: UTF-8
Codec ID: S_TEXT/UTF8
Codec ID/Info: UTF-8 Plain Text
Duration: 38 min 39 s
Bit rate: 37 b/s
Frame rate: 0.103 FPS
Count of elements: 238
Stream size: 10.5 KiB (0%)
Title: Portuguese
Language: Portuguese
Default: No
Forced: No

Text #31
ID: 33
Format: UTF-8
Codec ID: S_TEXT/UTF8
Codec ID/Info: UTF-8 Plain Text
Duration: 38 min 39 s
Bit rate: 38 b/s
Frame rate: 0.103 FPS
Count of elements: 238
Stream size: 10.8 KiB (0%)
Title: Portuguese (Brazil)
Language: Portuguese (BR)
Default: No
Forced: No

Text #32
ID: 34
Format: UTF-8
Codec ID: S_TEXT/UTF8
Codec ID/Info: UTF-8 Plain Text
Duration: 38 min 39 s
Bit rate: 65 b/s
Frame rate: 0.106 FPS
Count of elements: 246
Stream size: 18.7 KiB (0%)
Language: Russian
Default: No
Forced: No

Text #33
ID: 35
Format: UTF-8
Codec ID: S_TEXT/UTF8
Codec ID/Info: UTF-8 Plain Text
Duration: 38 min 39 s
Bit rate: 34 b/s
Frame rate: 0.100 FPS
Count of elements: 233
Stream size: 9.69 KiB (0%)
Language: Slovak
Default: No
Forced: No

Text #34
ID: 36
Format: UTF-8
Codec ID: S_TEXT/UTF8
Codec ID/Info: UTF-8 Plain Text
Duration: 38 min 39 s
Bit rate: 31 b/s
Frame rate: 0.099 FPS
Count of elements: 229
Stream size: 8.82 KiB (0%)
Language: Slovenian
Default: No
Forced: No

Text #35
ID: 37
Format: UTF-8
Codec ID: S_TEXT/UTF8
Codec ID/Info: UTF-8 Plain Text
Duration: 38 min 39 s
Bit rate: 31 b/s
Frame rate: 0.093 FPS
Count of elements: 215
Stream size: 9.00 KiB (0%)
Language: Swedish
Default: No
Forced: No

Text #36
ID: 38
Format: UTF-8
Codec ID: S_TEXT/UTF8
Codec ID/Info: UTF-8 Plain Text
Duration: 38 min 39 s
Bit rate: 122 b/s
Frame rate: 0.102 FPS
Count of elements: 237
Stream size: 34.8 KiB (0%)
Language: Tamil
Default: No
Forced: No

Text #37
ID: 39
Format: UTF-8
Codec ID: S_TEXT/UTF8
Codec ID/Info: UTF-8 Plain Text
Duration: 38 min 39 s
Bit rate: 112 b/s
Frame rate: 0.102 FPS
Count of elements: 237
Stream size: 31.9 KiB (0%)
Language: Telugu
Default: No
Forced: No

Text #38
ID: 40
Format: UTF-8
Codec ID: S_TEXT/UTF8
Codec ID/Info: UTF-8 Plain Text
Duration: 38 min 39 s
Bit rate: 96 b/s
Frame rate: 0.102 FPS
Count of elements: 237
Stream size: 27.3 KiB (0%)
Language: Thai
Default: No
Forced: No

Text #39
ID: 41
Format: UTF-8
Codec ID: S_TEXT/UTF8
Codec ID/Info: UTF-8 Plain Text
Duration: 38 min 39 s
Bit rate: 37 b/s
Frame rate: 0.102 FPS
Count of elements: 236
Stream size: 10.6 KiB (0%)
Language: Turkish
Default: No
Forced: No

Text #40
ID: 42
Format: UTF-8
Codec ID: S_TEXT/UTF8
Codec ID/Info: UTF-8 Plain Text
Duration: 38 min 39 s
Bit rate: 57 b/s
Frame rate: 0.103 FPS
Count of elements: 238
Stream size: 16.4 KiB (0%)
Language: Ukrainian
Default: No
Forced: No

Text #41
ID: 43
Format: UTF-8
Codec ID: S_TEXT/UTF8
Codec ID/Info: UTF-8 Plain Text
Duration: 38 min 39 s
Bit rate: 46 b/s
Frame rate: 0.103 FPS
Count of elements: 238
Stream size: 13.3 KiB (0%)
Language: Vietnamese
Default: No
Forced: No

Text #42
ID: 44
Format: UTF-8
Codec ID: S_TEXT/UTF8
Codec ID/Info: UTF-8 Plain Text
Duration: 38 min 39 s
Bit rate: 28 b/s
Frame rate: 0.103 FPS
Count of elements: 238
Stream size: 8.00 KiB (0%)
Title: Cantonese (Traditional)
Language: Cantonese (Hant)
Default: No
Forced: No

Menu
00:00:00.000: en:Chapter 1
00:00:08.375: en:Intro
00:01:51.041: en:Chapter 2
ssl  EZTV RSS EZTV Status | EZTV API | DMCA: [email protected]