eztvx.to | eztvstatus.org
Search title:  
TV Packs only
 

Silo S01E04 Truth 1080p ATVP WEBRip DDP5 1 x264-NTb EZTV

Episode Breakdown
Silo
Silo TV Show S01E04

Season: 1
Episode: 4
Air Date: 19 May, 2023
Download Links
     Torrent Download     Magnet Download
     Anonymous Download
Added 10 months ago by eztv (verified).
Tracker Statistics
Seeds: 12
Peers: 1
Stats generated @ 01:06 on 15th Apr 2024
Torrent Info
Torrent File: Silo.S01E04.Truth.1080p.ATVP.WEB-DL.DDP5.1.H.264-NTb[eztv.re].mkv
Torrent Hash: 8904E3F3080FCCDC730D22F6B4A97ED25D0ECEA1
Filesize: 3.42 GB
Released: 18th May 2023

File Format: MKV (Matroska)
Resolution: 1920x1080 px
Aspect Ratio: 16:9
Alternate Releases S L
Silo S01E04 720p WEB h264-ETHEL 24 2
Silo S01E04 1080p WEB H264-CAKES 21 1
Silo S01E04 720p HEVC x265-MeGusta 11 0
Silo S01E04 480p x264-mSD 1 0
Silo S01E04 1080p HEVC x265-MeGusta 132 3
Silo S01E04 XviD-AFG 9 0
Silo S01E04 MULTI 1080p WEB H264-HiggsBoson 44 2

Silo S01E04 - Truth

Summary:

Juliette tries gaining the trust of Deputy Marnes as they work to uncover the truth about recent tragedies.



Silo S01E04 Truth 1080p ATVP WEBRip DDP5 1 x264-NTb EZTV
Silo S1E4 Screenshot


General
Unique ID: 98002250848300607648814897683431576256 (0x49BA8C051610C5D090F7793A63BA52C0)
Complete name: Silo.S01E04.Truth.1080p.ATVP.WEB-DL.DDP5.1.H.264-NTb.mkv
Format: Matroska
Format version: Version 4
File size: 3.42 GiB
Duration: 45 min 6 s
Overall bit rate: 10.9 Mb/s
Writing application: mkvmerge v75.0.0 ('Goliath') 64-bit
Writing library: libebml v1.4.4 + libmatroska v1.7.1

Video
ID: 1
Format: AVC
Format/Info: Advanced Video Codec
Format profile: High@L4
Format settings: CABAC / 4 Ref Frames
Format settings, CABAC: Yes
Format settings, Reference frames: 4 frames
Codec ID: V_MPEG4/ISO/AVC
Duration: 45 min 6 s
Bit rate: 10.1 Mb/s
Width: 1 920 pixels
Height: 960 pixels
Display aspect ratio: 2.000
Frame rate mode: Constant
Frame rate: 23.976 (24000/1001) FPS
Color space: YUV
Chroma subsampling: 4:2:0
Bit depth: 8 bits
Scan type: Progressive
Bits/(Pixel*Frame): 0.228
Stream size: 3.17 GiB (93%)
Default: Yes
Forced: No
Color range: Limited
Color primaries: BT.709
Transfer characteristics: BT.709
Matrix coefficients: BT.709

Audio
ID: 2
Format: E-AC-3 JOC
Format/Info: Enhanced AC-3 with Joint Object Coding
Commercial name: Dolby Digital Plus with Dolby Atmos
Codec ID: A_EAC3
Duration: 45 min 6 s
Bit rate mode: Constant
Bit rate: 768 kb/s
Channel(s): 6 channels
Channel layout: L R C LFE Ls Rs
Sampling rate: 48.0 kHz
Frame rate: 31.250 FPS (1536 SPF)
Compression mode: Lossy
Stream size: 248 MiB (7%)
Language: English
Service kind: Complete Main
Default: Yes
Forced: No
Complexity index: 16
Number of dynamic objects: 15
Bed channel count: 1 channel
Bed channel configuration: LFE

Text #1
ID: 3
Format: UTF-8
Codec ID: S_TEXT/UTF8
Codec ID/Info: UTF-8 Plain Text
Duration: 42 min 39 s
Bit rate: 55 b/s
Frame rate: 0.188 FPS
Count of elements: 481
Stream size: 17.3 KiB (0%)
Language: English
Default: No
Forced: No

Text #2
ID: 4
Format: UTF-8
Codec ID: S_TEXT/UTF8
Codec ID/Info: UTF-8 Plain Text
Duration: 43 min 6 s
Bit rate: 62 b/s
Frame rate: 0.211 FPS
Count of elements: 547
Stream size: 19.8 KiB (0%)
Title: SDH
Language: English
Default: No
Forced: No

Text #3
ID: 5
Format: UTF-8
Codec ID: S_TEXT/UTF8
Codec ID/Info: UTF-8 Plain Text
Duration: 44 min 52 s
Bit rate: 78 b/s
Frame rate: 0.186 FPS
Count of elements: 500
Stream size: 25.7 KiB (0%)
Language: Arabic
Default: No
Forced: No

Text #4
ID: 6
Format: UTF-8
Codec ID: S_TEXT/UTF8
Codec ID/Info: UTF-8 Plain Text
Duration: 44 min 52 s
Bit rate: 72 b/s
Frame rate: 0.154 FPS
Count of elements: 415
Stream size: 23.8 KiB (0%)
Language: Bulgarian
Default: No
Forced: No

Text #5
ID: 7
Format: UTF-8
Codec ID: S_TEXT/UTF8
Codec ID/Info: UTF-8 Plain Text
Duration: 44 min 52 s
Bit rate: 46 b/s
Frame rate: 0.186 FPS
Count of elements: 500
Stream size: 15.4 KiB (0%)
Title: Chinese (Simplified)
Language: Mandarin (Hans)
Default: No
Forced: No

Text #6
ID: 8
Format: UTF-8
Codec ID: S_TEXT/UTF8
Codec ID/Info: UTF-8 Plain Text
Duration: 44 min 52 s
Bit rate: 50 b/s
Frame rate: 0.186 FPS
Count of elements: 501
Stream size: 16.5 KiB (0%)
Title: Chinese (Traditional)
Language: Mandarin (Hant)
Default: No
Forced: No

Text #7
ID: 9
Format: UTF-8
Codec ID: S_TEXT/UTF8
Codec ID/Info: UTF-8 Plain Text
Duration: 44 min 52 s
Bit rate: 46 b/s
Frame rate: 0.173 FPS
Count of elements: 467
Stream size: 15.1 KiB (0%)
Language: Czech
Default: No
Forced: No

Text #8
ID: 10
Format: UTF-8
Codec ID: S_TEXT/UTF8
Codec ID/Info: UTF-8 Plain Text
Duration: 44 min 52 s
Bit rate: 51 b/s
Frame rate: 0.161 FPS
Count of elements: 434
Stream size: 16.8 KiB (0%)
Language: Danish
Default: No
Forced: No

Text #9
ID: 11
Format: UTF-8
Codec ID: S_TEXT/UTF8
Codec ID/Info: UTF-8 Plain Text
Duration: 44 min 58 s
Bit rate: 49 b/s
Frame rate: 0.189 FPS
Count of elements: 511
Stream size: 16.4 KiB (0%)
Language: German
Default: No
Forced: No

Text #10
ID: 12
Format: UTF-8
Codec ID: S_TEXT/UTF8
Codec ID/Info: UTF-8 Plain Text
Duration: 44 min 52 s
Bit rate: 85 b/s
Frame rate: 0.181 FPS
Count of elements: 488
Stream size: 28.1 KiB (0%)
Language: Greek
Default: No
Forced: No

Text #11
ID: 13
Format: UTF-8
Codec ID: S_TEXT/UTF8
Codec ID/Info: UTF-8 Plain Text
Duration: 44 min 52 s
Bit rate: 52 b/s
Frame rate: 0.185 FPS
Count of elements: 499
Stream size: 17.3 KiB (0%)
Title: Spanish (Latin America)
Language: Spanish (Latin America)
Default: No
Forced: No

Text #12
ID: 14
Format: UTF-8
Codec ID: S_TEXT/UTF8
Codec ID/Info: UTF-8 Plain Text
Duration: 44 min 52 s
Bit rate: 52 b/s
Frame rate: 0.185 FPS
Count of elements: 497
Stream size: 17.2 KiB (0%)
Title: Spanish (Spain)
Language: Spanish (ES)
Default: No
Forced: No

Text #13
ID: 15
Format: UTF-8
Codec ID: S_TEXT/UTF8
Codec ID/Info: UTF-8 Plain Text
Duration: 44 min 52 s
Bit rate: 49 b/s
Frame rate: 0.178 FPS
Count of elements: 478
Stream size: 16.1 KiB (0%)
Language: Estonian
Default: No
Forced: No

Text #14
ID: 16
Format: UTF-8
Codec ID: S_TEXT/UTF8
Codec ID/Info: UTF-8 Plain Text
Duration: 44 min 52 s
Bit rate: 45 b/s
Frame rate: 0.171 FPS
Count of elements: 460
Stream size: 15.0 KiB (0%)
Language: Finnish
Default: No
Forced: No

Text #15
ID: 17
Format: UTF-8
Codec ID: S_TEXT/UTF8
Codec ID/Info: UTF-8 Plain Text
Duration: 44 min 56 s
Bit rate: 48 b/s
Frame rate: 0.187 FPS
Count of elements: 503
Stream size: 16.0 KiB (0%)
Title: French (Canada)
Language: French (CA)
Default: No
Forced: No

Text #16
ID: 18
Format: UTF-8
Codec ID: S_TEXT/UTF8
Codec ID/Info: UTF-8 Plain Text
Duration: 44 min 56 s
Bit rate: 48 b/s
Frame rate: 0.187 FPS
Count of elements: 503
Stream size: 16.0 KiB (0%)
Title: French (France)
Language: French (FR)
Default: No
Forced: No

Text #17
ID: 19
Format: UTF-8
Codec ID: S_TEXT/UTF8
Codec ID/Info: UTF-8 Plain Text
Duration: 44 min 52 s
Bit rate: 76 b/s
Frame rate: 0.186 FPS
Count of elements: 501
Stream size: 25.1 KiB (0%)
Language: Hebrew
Default: No
Forced: No

Text #18
ID: 20
Format: UTF-8
Codec ID: S_TEXT/UTF8
Codec ID/Info: UTF-8 Plain Text
Duration: 44 min 52 s
Bit rate: 139 b/s
Frame rate: 0.186 FPS
Count of elements: 501
Stream size: 45.9 KiB (0%)
Language: Hindi
Default: No
Forced: No

Text #19
ID: 21
Format: UTF-8
Codec ID: S_TEXT/UTF8
Codec ID/Info: UTF-8 Plain Text
Duration: 44 min 52 s
Bit rate: 49 b/s
Frame rate: 0.185 FPS
Count of elements: 497
Stream size: 16.4 KiB (0%)
Language: Hungarian
Default: No
Forced: No

Text #20
ID: 22
Format: UTF-8
Codec ID: S_TEXT/UTF8
Codec ID/Info: UTF-8 Plain Text
Duration: 44 min 52 s
Bit rate: 53 b/s
Frame rate: 0.185 FPS
Count of elements: 499
Stream size: 17.6 KiB (0%)
Language: Indonesian
Default: No
Forced: No

Text #21
ID: 23
Format: UTF-8
Codec ID: S_TEXT/UTF8
Codec ID/Info: UTF-8 Plain Text
Duration: 44 min 13 s
Bit rate: 55 b/s
Frame rate: 0.190 FPS
Count of elements: 503
Stream size: 18.1 KiB (0%)
Language: Italian
Default: No
Forced: No

Text #22
ID: 24
Format: UTF-8
Codec ID: S_TEXT/UTF8
Codec ID/Info: UTF-8 Plain Text
Duration: 44 min 52 s
Bit rate: 42 b/s
Frame rate: 0.182 FPS
Count of elements: 491
Stream size: 14.1 KiB (0%)
Language: Japanese
Default: No
Forced: No

Text #23
ID: 25
Format: UTF-8
Codec ID: S_TEXT/UTF8
Codec ID/Info: UTF-8 Plain Text
Duration: 44 min 52 s
Bit rate: 61 b/s
Frame rate: 0.186 FPS
Count of elements: 500
Stream size: 20.1 KiB (0%)
Language: Korean
Default: No
Forced: No

Text #24
ID: 26
Format: UTF-8
Codec ID: S_TEXT/UTF8
Codec ID/Info: UTF-8 Plain Text
Duration: 44 min 52 s
Bit rate: 53 b/s
Frame rate: 0.185 FPS
Count of elements: 498
Stream size: 17.5 KiB (0%)
Language: Lithuanian
Default: No
Forced: No

Text #25
ID: 27
Format: UTF-8
Codec ID: S_TEXT/UTF8
Codec ID/Info: UTF-8 Plain Text
Duration: 44 min 52 s
Bit rate: 54 b/s
Frame rate: 0.178 FPS
Count of elements: 480
Stream size: 18.0 KiB (0%)
Language: Latvian
Default: No
Forced: No

Text #26
ID: 28
Format: UTF-8
Codec ID: S_TEXT/UTF8
Codec ID/Info: UTF-8 Plain Text
Duration: 44 min 52 s
Bit rate: 52 b/s
Frame rate: 0.185 FPS
Count of elements: 499
Stream size: 17.1 KiB (0%)
Language: Malay
Default: No
Forced: No

Text #27
ID: 29
Format: UTF-8
Codec ID: S_TEXT/UTF8
Codec ID/Info: UTF-8 Plain Text
Duration: 44 min 52 s
Bit rate: 46 b/s
Frame rate: 0.149 FPS
Count of elements: 402
Stream size: 15.3 KiB (0%)
Language: Dutch
Default: No
Forced: No

Text #28
ID: 30
Format: UTF-8
Codec ID: S_TEXT/UTF8
Codec ID/Info: UTF-8 Plain Text
Duration: 44 min 52 s
Bit rate: 45 b/s
Frame rate: 0.149 FPS
Count of elements: 400
Stream size: 14.8 KiB (0%)
Language: Norwegian
Default: No
Forced: No

Text #29
ID: 31
Format: UTF-8
Codec ID: S_TEXT/UTF8
Codec ID/Info: UTF-8 Plain Text
Duration: 44 min 52 s
Bit rate: 47 b/s
Frame rate: 0.170 FPS
Count of elements: 458
Stream size: 15.5 KiB (0%)
Language: Polish
Default: No
Forced: No

Text #30
ID: 32
Format: UTF-8
Codec ID: S_TEXT/UTF8
Codec ID/Info: UTF-8 Plain Text
Duration: 44 min 52 s
Bit rate: 53 b/s
Frame rate: 0.185 FPS
Count of elements: 497
Stream size: 17.6 KiB (0%)
Title: Portuguese
Language: Portuguese
Default: No
Forced: No

Text #31
ID: 33
Format: UTF-8
Codec ID: S_TEXT/UTF8
Codec ID/Info: UTF-8 Plain Text
Duration: 44 min 52 s
Bit rate: 47 b/s
Frame rate: 0.176 FPS
Count of elements: 474
Stream size: 15.5 KiB (0%)
Title: Portuguese (Brazil)
Language: Portuguese (BR)
Default: No
Forced: No

Text #32
ID: 34
Format: UTF-8
Codec ID: S_TEXT/UTF8
Codec ID/Info: UTF-8 Plain Text
Duration: 44 min 51 s
Bit rate: 77 b/s
Frame rate: 0.182 FPS
Count of elements: 489
Stream size: 25.6 KiB (0%)
Language: Russian
Default: No
Forced: No

Text #33
ID: 35
Format: UTF-8
Codec ID: S_TEXT/UTF8
Codec ID/Info: UTF-8 Plain Text
Duration: 44 min 52 s
Bit rate: 48 b/s
Frame rate: 0.185 FPS
Count of elements: 498
Stream size: 16.0 KiB (0%)
Language: Slovak
Default: No
Forced: No

Text #34
ID: 36
Format: UTF-8
Codec ID: S_TEXT/UTF8
Codec ID/Info: UTF-8 Plain Text
Duration: 44 min 52 s
Bit rate: 42 b/s
Frame rate: 0.167 FPS
Count of elements: 450
Stream size: 14.1 KiB (0%)
Language: Slovenian
Default: No
Forced: No

Text #35
ID: 37
Format: UTF-8
Codec ID: S_TEXT/UTF8
Codec ID/Info: UTF-8 Plain Text
Duration: 44 min 52 s
Bit rate: 51 b/s
Frame rate: 0.185 FPS
Count of elements: 499
Stream size: 17.0 KiB (0%)
Language: Swedish
Default: No
Forced: No

Text #36
ID: 38
Format: UTF-8
Codec ID: S_TEXT/UTF8
Codec ID/Info: UTF-8 Plain Text
Duration: 44 min 52 s
Bit rate: 171 b/s
Frame rate: 0.186 FPS
Count of elements: 500
Stream size: 56.3 KiB (0%)
Language: Tamil
Default: No
Forced: No

Text #37
ID: 39
Format: UTF-8
Codec ID: S_TEXT/UTF8
Codec ID/Info: UTF-8 Plain Text
Duration: 44 min 52 s
Bit rate: 159 b/s
Frame rate: 0.186 FPS
Count of elements: 500
Stream size: 52.5 KiB (0%)
Language: Telugu
Default: No
Forced: No

Text #38
ID: 40
Format: UTF-8
Codec ID: S_TEXT/UTF8
Codec ID/Info: UTF-8 Plain Text
Duration: 44 min 52 s
Bit rate: 135 b/s
Frame rate: 0.186 FPS
Count of elements: 500
Stream size: 44.6 KiB (0%)
Language: Thai
Default: No
Forced: No

Text #39
ID: 41
Format: UTF-8
Codec ID: S_TEXT/UTF8
Codec ID/Info: UTF-8 Plain Text
Duration: 44 min 52 s
Bit rate: 53 b/s
Frame rate: 0.180 FPS
Count of elements: 484
Stream size: 17.5 KiB (0%)
Language: Turkish
Default: No
Forced: No

Text #40
ID: 42
Format: UTF-8
Codec ID: S_TEXT/UTF8
Codec ID/Info: UTF-8 Plain Text
Duration: 44 min 52 s
Bit rate: 77 b/s
Frame rate: 0.186 FPS
Count of elements: 501
Stream size: 25.3 KiB (0%)
Language: Ukrainian
Default: No
Forced: No

Text #41
ID: 43
Format: UTF-8
Codec ID: S_TEXT/UTF8
Codec ID/Info: UTF-8 Plain Text
Duration: 44 min 52 s
Bit rate: 66 b/s
Frame rate: 0.185 FPS
Count of elements: 499
Stream size: 21.8 KiB (0%)
Language: Vietnamese
Default: No
Forced: No

Text #42
ID: 44
Format: UTF-8
Codec ID: S_TEXT/UTF8
Codec ID/Info: UTF-8 Plain Text
Duration: 44 min 52 s
Bit rate: 46 b/s
Frame rate: 0.186 FPS
Count of elements: 501
Stream size: 15.3 KiB (0%)
Title: Cantonese (Traditional)
Language: Cantonese (Hant)
Default: No
Forced: No

Menu
00:00:00.000: en:Chapter 1
00:04:22.207: en:Intro
00:05:39.166: en:Chapter 2
ssl  EZTV RSS EZTV Status | EZTV API | DMCA: [email protected]