eztvx.to | eztvstatus.org
Search title:  
TV Packs only
 

Love and Death S01E06 The Big Top 1080p AMZN WEBRip DDP5 1 x264-NTb EZTV

Episode Breakdown
Love & Death
Love & Death TV Show S01E06

Season: 1
Episode: 6
Air Date: 18 May, 2023
Download Links
     Torrent Download     Magnet Download
     Anonymous Download
Added 1 year ago by eztv (verified).
Tracker Statistics
Seeds: 1
Peers: 1
Stats generated @ 09:45 on 15th Jun 2024
Torrent Info
Torrent File: Love.and.Death.S01E06.The.Big.Top.1080p.AMZN.WEB-DL.DDP5.1.H.264-NTb[eztv.re].mkv
Torrent Hash: 8B9B9E53D0E36A85DA3846389577FB4972B303FB
Filesize: 2.03 GB
Released: 18th May 2023

File Format: MKV (Matroska)
Resolution: 1920x1080 px
Aspect Ratio: 16:9
Alternate Releases S L
Love and Death S01E06 720p WEB h264-ETHEL 2 0
Love and Death S01E06 1080p WEB H264-CAKES 4 0
Love and Death S01E06 720p HEVC x265-MeGusta 0 0
Love and Death S01E06 480p x264-mSD 0 0
Love and Death S01E06 XviD-AFG 1 1
Love and Death S01E06 1080p HEVC x265-MeGusta 4 0
Love and Death S01E06 The Big Top 1080p HMAX WEBRip DDP5 1 x264-NTb 0 0

Love & Death S01E06 - The Big Top

Summary:

1980. As the trial gets underway, Allan's testimony about Betty's state of mind rankles her father, while Candy gets a visit from an incensed Pastor Jackie.



Love and Death S01E06 The Big Top 1080p AMZN WEBRip DDP5 1 x264-NTb EZTV
Love & Death S1E6 Screenshot


General
Unique ID: 39553200912195835871959004233627580673 (0x1DC1AB5E04071FE0308A2FF0C793B901)
Complete name: Love.and.Death.S01E06.The.Big.Top.1080p.AMZN.WEB-DL.DDP5.1.H.264-NTb.mkv
Format: Matroska
Format version: Version 4
File size: 2.03 GiB
Duration: 45 min 8 s
Overall bit rate: 6 445 kb/s
Writing application: mkvmerge v75.0.0 ('Goliath') 64-bit
Writing library: libebml v1.4.4 + libmatroska v1.7.1

Video
ID: 1
Format: AVC
Format/Info: Advanced Video Codec
Format profile: High@L4
Format settings: CABAC / 4 Ref Frames
Format settings, CABAC: Yes
Format settings, Reference frames: 4 frames
Codec ID: V_MPEG4/ISO/AVC
Duration: 45 min 8 s
Bit rate mode: Constant
Bit rate: 5 802 kb/s
Nominal bit rate: 10 000 kb/s
Width: 1 920 pixels
Height: 960 pixels
Display aspect ratio: 2.000
Frame rate mode: Constant
Frame rate: 24.000 FPS
Color space: YUV
Chroma subsampling: 4:2:0
Bit depth: 8 bits
Scan type: Progressive
Bits/(Pixel*Frame): 0.131
Stream size: 1.83 GiB (90%)
Default: Yes
Forced: No
Color range: Limited
Color primaries: BT.709
Transfer characteristics: BT.709
Matrix coefficients: BT.709

Audio
ID: 2
Format: E-AC-3
Format/Info: Enhanced AC-3
Commercial name: Dolby Digital Plus
Codec ID: A_EAC3
Duration: 45 min 8 s
Bit rate mode: Constant
Bit rate: 640 kb/s
Channel(s): 6 channels
Channel layout: L R C LFE Ls Rs
Sampling rate: 48.0 kHz
Frame rate: 31.250 FPS (1536 SPF)
Compression mode: Lossy
Stream size: 207 MiB (10%)
Language: English
Service kind: Complete Main
Default: Yes
Forced: No

Text #1
ID: 3
Format: UTF-8
Codec ID: S_TEXT/UTF8
Codec ID/Info: UTF-8 Plain Text
Duration: 41 min 55 s
Bit rate: 78 b/s
Frame rate: 0.276 FPS
Count of elements: 694
Stream size: 24.2 KiB (0%)
Language: English (US)
Default: No
Forced: No

Text #2
ID: 4
Format: UTF-8
Codec ID: S_TEXT/UTF8
Codec ID/Info: UTF-8 Plain Text
Duration: 45 min 1 s
Bit rate: 90 b/s
Frame rate: 0.338 FPS
Count of elements: 913
Stream size: 30.0 KiB (0%)
Title: SDH
Language: English (US)
Default: No
Forced: No

Text #3
ID: 5
Format: UTF-8
Codec ID: S_TEXT/UTF8
Codec ID/Info: UTF-8 Plain Text
Duration: 44 min 50 s
Bit rate: 107 b/s
Frame rate: 0.260 FPS
Count of elements: 700
Stream size: 35.4 KiB (0%)
Language: Bulgarian (BG)
Default: No
Forced: No

Text #4
ID: 6
Format: UTF-8
Codec ID: S_TEXT/UTF8
Codec ID/Info: UTF-8 Plain Text
Duration: 44 min 50 s
Bit rate: 68 b/s
Frame rate: 0.261 FPS
Count of elements: 702
Stream size: 22.6 KiB (0%)
Language: Czech (CZ)
Default: No
Forced: No

Menu
00:00:00.000: en:Chapter 1
00:00:04.989: en:Intro
00:01:35.164: en:Chapter 2
00:13:01.598: en:Chapter 3
00:22:13.358: en:Chapter 4
00:36:41.934: en:Chapter 5
00:44:07.025: en:Credits
ssl  EZTV RSS EZTV Status | EZTV API | DMCA: [email protected]