eztvx.to | eztvstatus.org
Search title:  
TV Packs only
 

Love and Death S01E05 The Arrest 1080p HMAX WEBRip DDP5 1 x264-NTb EZTV

Episode Breakdown
Love & Death
Love & Death TV Show S01E05

Season: 1
Episode: 5
Air Date: 11 May, 2023
Download Links
     Torrent Download     Magnet Download
     Anonymous Download
Added 1 year ago by eztv (verified).
Tracker Statistics
Seeds: 5
Peers: 2
Stats generated @ 19:38 on 24th May 2024
Torrent Info
Torrent File: Love.and.Death.S01E05.The.Arrest.1080p.HMAX.WEB-DL.DDP5.1.H.264-NTb[eztv.re].mkv
Torrent Hash: 15B93FBC58BDC534E97BBA7CA371B1DDCBD61EB6
Filesize: 3.27 GB
Released: 12th May 2023

File Format: MKV (Matroska)
Resolution: 1920x1080 px
Aspect Ratio: 16:9
Alternate Releases S L
Love and Death S01E05 1080p WEB H264-CAKES 7 1
Love and Death S01E05 720p WEB H264-CAKES 8 0
Love and Death S01E05 720p HEVC x265-MeGusta 2 0
Love and Death S01E05 480p x264-mSD 3 0
Love and Death S01E05 The Arrest 1080p AMZN WEBRip DDP5 1 x264-NTb 0 1
Love and Death S01E05 MULTi 1080p WEB H264-AMB3R 1 3

Love & Death S01E05 - The Arrest

Summary:

After detectives intensify their questioning, Candy retains Don Crowder as her attorney. Later, Allan admits his affair to Betty's relatives, and Pat becomes frustrated over being kept in the dark about the case.



Love and Death S01E05 The Arrest 1080p HMAX WEBRip DDP5 1 x264-NTb EZTV
Love & Death S1E5 Screenshot


General
Unique ID: 23785276267507085233419983763877464338 (0x11E4E0A913BB80A45F1AA003297D0912)
Complete name: Love.and.Death.S01E05.The.Arrest.1080p.HMAX.WEB-DL.DDP5.1.H.264-NTb.mkv
Format: Matroska
Format version: Version 4
File size: 3.27 GiB
Duration: 52 min 46 s
Overall bit rate mode: Variable
Overall bit rate: 8 872 kb/s
Writing application: mkvmerge v75.0.0 ('Goliath') 64-bit
Writing library: libebml v1.4.4 + libmatroska v1.7.1

Video
ID: 1
Format: AVC
Format/Info: Advanced Video Codec
Format profile: High@L4
Format settings: CABAC / 4 Ref Frames
Format settings, CABAC: Yes
Format settings, Reference frames: 4 frames
Codec ID: V_MPEG4/ISO/AVC
Duration: 52 min 46 s
Bit rate mode: Variable
Bit rate: 8 250 kb/s
Maximum bit rate: 12.4 Mb/s
Width: 1 920 pixels
Height: 1 080 pixels
Display aspect ratio: 16:9
Frame rate mode: Constant
Frame rate: 23.976 (24000/1001) FPS
Color space: YUV
Chroma subsampling: 4:2:0
Bit depth: 8 bits
Scan type: Progressive
Bits/(Pixel*Frame): 0.166
Stream size: 3.03 GiB (93%)
Writing library: x264 core 157 r2965 861cec4
Encoding settings: cabac=1 / ref=4 / deblock=1:0:0 / analyse=0x3:0x113 / me=hex / subme=7 / psy=1 / psy_rd=1.00:0.00 / mixed_ref=1 / me_range=16 / chroma_me=1 / trellis=1 / 8x8dct=1 / cqm=0 / deadzone=21,11 / fast_pskip=1 / chroma_qp_offset=-2 / threads=34 / lookahead_threads=5 / sliced_threads=0 / nr=0 / decimate=1 / interlaced=0 / bluray_compat=0 / constrained_intra=0 / bframes=3 / b_pyramid=2 / b_adapt=1 / b_bias=0 / direct=1 / weightb=1 / open_gop=0 / weightp=2 / keyint=96 / keyint_min=96 / scenecut=40 / intra_refresh=0 / rc_lookahead=40 / rc=2pass / mbtree=1 / bitrate=8250 / ratetol=1.0 / qcomp=0.60 / qpmin=0 / qpmax=69 / qpstep=4 / cplxblur=20.0 / qblur=0.5 / vbv_maxrate=12375 / vbv_bufsize=6187 / nal_hrd=vbr / filler=0 / ip_ratio=1.40 / aq=1:1.00
Default: Yes
Forced: No
Color range: Limited
Color primaries: BT.709
Transfer characteristics: BT.709
Matrix coefficients: BT.709

Audio
ID: 2
Format: E-AC-3
Format/Info: Enhanced AC-3
Commercial name: Dolby Digital Plus
Codec ID: A_EAC3
Duration: 52 min 46 s
Bit rate mode: Constant
Bit rate: 640 kb/s
Channel(s): 6 channels
Channel layout: L R C LFE Ls Rs
Sampling rate: 48.0 kHz
Frame rate: 31.250 FPS (1536 SPF)
Compression mode: Lossy
Stream size: 242 MiB (7%)
Language: English
Service kind: Complete Main
Default: Yes
Forced: No

Text #1
ID: 3
Format: UTF-8
Codec ID: S_TEXT/UTF8
Codec ID/Info: UTF-8 Plain Text
Duration: 49 min 20 s
Bit rate: 69 b/s
Frame rate: 0.260 FPS
Count of elements: 769
Stream size: 25.2 KiB (0%)
Language: English (US)
Default: No
Forced: No

Text #2
ID: 4
Format: UTF-8
Codec ID: S_TEXT/UTF8
Codec ID/Info: UTF-8 Plain Text
Duration: 52 min 38 s
Bit rate: 87 b/s
Frame rate: 0.338 FPS
Count of elements: 1068
Stream size: 33.6 KiB (0%)
Title: SDH
Language: English (US)
Default: No
Forced: No

Text #3
ID: 5
Format: UTF-8
Codec ID: S_TEXT/UTF8
Codec ID/Info: UTF-8 Plain Text
Duration: 52 min 27 s
Bit rate: 94 b/s
Frame rate: 0.249 FPS
Count of elements: 784
Stream size: 36.2 KiB (0%)
Language: Bulgarian (BG)
Default: No
Forced: No

Text #4
ID: 6
Format: UTF-8
Codec ID: S_TEXT/UTF8
Codec ID/Info: UTF-8 Plain Text
Duration: 52 min 27 s
Bit rate: 58 b/s
Frame rate: 0.250 FPS
Count of elements: 786
Stream size: 22.5 KiB (0%)
Language: Czech (CZ)
Default: No
Forced: No

Text #5
ID: 7
Format: UTF-8
Codec ID: S_TEXT/UTF8
Codec ID/Info: UTF-8 Plain Text
Duration: 52 min 27 s
Bit rate: 57 b/s
Frame rate: 0.249 FPS
Count of elements: 785
Stream size: 22.2 KiB (0%)
Language: Danish (DK)
Default: No
Forced: No

Text #6
ID: 8
Format: UTF-8
Codec ID: S_TEXT/UTF8
Codec ID/Info: UTF-8 Plain Text
Duration: 52 min 27 s
Bit rate: 61 b/s
Frame rate: 0.250 FPS
Count of elements: 786
Stream size: 23.6 KiB (0%)
Title: Spanish (Latin America)
Language: Spanish (Latin America)
Default: No
Forced: No

Text #7
ID: 9
Format: UTF-8
Codec ID: S_TEXT/UTF8
Codec ID/Info: UTF-8 Plain Text
Duration: 50 min 7 s
Bit rate: 67 b/s
Frame rate: 0.236 FPS
Count of elements: 711
Stream size: 24.8 KiB (0%)
Title: Spanish (Spain)
Language: Spanish (ES)
Default: No
Forced: No

Text #8
ID: 10
Format: UTF-8
Codec ID: S_TEXT/UTF8
Codec ID/Info: UTF-8 Plain Text
Duration: 52 min 27 s
Bit rate: 54 b/s
Frame rate: 0.249 FPS
Count of elements: 783
Stream size: 20.9 KiB (0%)
Language: Finnish (FI)
Default: No
Forced: No

Text #9
ID: 11
Format: UTF-8
Codec ID: S_TEXT/UTF8
Codec ID/Info: UTF-8 Plain Text
Duration: 52 min 27 s
Bit rate: 54 b/s
Frame rate: 0.250 FPS
Count of elements: 786
Stream size: 20.9 KiB (0%)
Language: Croatian (HR)
Default: No
Forced: No

Text #10
ID: 12
Format: UTF-8
Codec ID: S_TEXT/UTF8
Codec ID/Info: UTF-8 Plain Text
Duration: 52 min 27 s
Bit rate: 57 b/s
Frame rate: 0.250 FPS
Count of elements: 786
Stream size: 22.1 KiB (0%)
Language: Hungarian (HU)
Default: No
Forced: No

Text #11
ID: 13
Format: UTF-8
Codec ID: S_TEXT/UTF8
Codec ID/Info: UTF-8 Plain Text
Duration: 52 min 27 s
Bit rate: 110 b/s
Frame rate: 0.250 FPS
Count of elements: 786
Stream size: 42.5 KiB (0%)
Language: Macedonian (MK)
Default: No
Forced: No

Text #12
ID: 14
Format: UTF-8
Codec ID: S_TEXT/UTF8
Codec ID/Info: UTF-8 Plain Text
Duration: 52 min 27 s
Bit rate: 55 b/s
Frame rate: 0.234 FPS
Count of elements: 736
Stream size: 21.5 KiB (0%)
Language: Dutch (NL)
Default: No
Forced: No

Text #13
ID: 15
Format: UTF-8
Codec ID: S_TEXT/UTF8
Codec ID/Info: UTF-8 Plain Text
Duration: 52 min 27 s
Bit rate: 54 b/s
Frame rate: 0.249 FPS
Count of elements: 785
Stream size: 21.0 KiB (0%)
Language: Norwegian (NO)
Default: No
Forced: No

Text #14
ID: 16
Format: UTF-8
Codec ID: S_TEXT/UTF8
Codec ID/Info: UTF-8 Plain Text
Duration: 52 min 27 s
Bit rate: 52 b/s
Frame rate: 0.249 FPS
Count of elements: 784
Stream size: 20.3 KiB (0%)
Language: Polish (PL)
Default: No
Forced: No

Text #15
ID: 17
Format: UTF-8
Codec ID: S_TEXT/UTF8
Codec ID/Info: UTF-8 Plain Text
Duration: 52 min 27 s
Bit rate: 56 b/s
Frame rate: 0.250 FPS
Count of elements: 786
Stream size: 21.6 KiB (0%)
Title: Portuguese (Brazil)
Language: Portuguese (BR)
Default: No
Forced: No

Text #16
ID: 18
Format: UTF-8
Codec ID: S_TEXT/UTF8
Codec ID/Info: UTF-8 Plain Text
Duration: 52 min 27 s
Bit rate: 64 b/s
Frame rate: 0.249 FPS
Count of elements: 785
Stream size: 24.9 KiB (0%)
Title: Portuguese (Portugal)
Language: Portuguese (PT)
Default: No
Forced: No

Text #17
ID: 19
Format: UTF-8
Codec ID: S_TEXT/UTF8
Codec ID/Info: UTF-8 Plain Text
Duration: 52 min 27 s
Bit rate: 64 b/s
Frame rate: 0.250 FPS
Count of elements: 786
Stream size: 25.0 KiB (0%)
Language: Romanian (RO)
Default: No
Forced: No

Text #18
ID: 20
Format: UTF-8
Codec ID: S_TEXT/UTF8
Codec ID/Info: UTF-8 Plain Text
Duration: 52 min 27 s
Bit rate: 99 b/s
Frame rate: 0.250 FPS
Count of elements: 786
Stream size: 38.3 KiB (0%)
Language: Russian (RU)
Default: No
Forced: No

Text #19
ID: 21
Format: UTF-8
Codec ID: S_TEXT/UTF8
Codec ID/Info: UTF-8 Plain Text
Duration: 52 min 27 s
Bit rate: 57 b/s
Frame rate: 0.250 FPS
Count of elements: 786
Stream size: 22.0 KiB (0%)
Language: Slovenian (SI)
Default: No
Forced: No

Text #20
ID: 22
Format: UTF-8
Codec ID: S_TEXT/UTF8
Codec ID/Info: UTF-8 Plain Text
Duration: 51 min 7 s
Bit rate: 60 b/s
Frame rate: 0.256 FPS
Count of elements: 784
Stream size: 22.8 KiB (0%)
Language: Serbian-Latn-RS
Default: No
Forced: No

Text #21
ID: 23
Format: UTF-8
Codec ID: S_TEXT/UTF8
Codec ID/Info: UTF-8 Plain Text
Duration: 52 min 27 s
Bit rate: 61 b/s
Frame rate: 0.249 FPS
Count of elements: 783
Stream size: 23.8 KiB (0%)
Language: Swedish (SE)
Default: No
Forced: No

Menu
00:00:00.000: Chapter 1
00:00:06.006: Intro
00:01:35.930: Chapter 2
00:11:23.432: Chapter 3
00:23:35.872: Chapter 4
00:31:40.857: Chapter 5
00:41:50.257: Chapter 6
00:51:45.000: Credits
ssl  EZTV RSS EZTV Status | EZTV API | DMCA: [email protected]