eztvx.to | eztvstatus.org
Search title:  
TV Packs only
 

Love and Death S01E05 The Arrest 1080p AMZN WEBRip DDP5 1 x264-NTb EZTV

Episode Breakdown
Love & Death
Love & Death TV Show S01E05

Season: 1
Episode: 5
Air Date: 11 May, 2023
Download Links
     Torrent Download     Magnet Download
     Anonymous Download
Added 11 months ago by eztv (verified).
Tracker Statistics
Seeds: 0
Peers: 0
Stats generated @ 10:50 on 15th Apr 2024
Torrent Info
Torrent File: Love.and.Death.S01E05.The.Arrest.1080p.AMZN.WEB-DL.DDP5.1.H.264-NTb[eztv.re].mkv
Torrent Hash: 37CFC8A77D1EE8E1D9E5765625FE7D38E6996B7C
Filesize: 2.46 GB
Released: 12th May 2023

File Format: MKV (Matroska)
Resolution: 1920x1080 px
Aspect Ratio: 16:9
Alternate Releases S L
Love and Death S01E05 1080p WEB H264-CAKES 10 2
Love and Death S01E05 720p WEB H264-CAKES 1 2
Love and Death S01E05 720p HEVC x265-MeGusta 7 2
Love and Death S01E05 480p x264-mSD 1 4
Love and Death S01E05 The Arrest 1080p HMAX WEBRip DDP5 1 x264-NTb 3 1
Love and Death S01E05 MULTi 1080p WEB H264-AMB3R 1 3

Love & Death S01E05 - The Arrest

Summary:

After detectives intensify their questioning, Candy retains Don Crowder as her attorney. Later, Allan admits his affair to Betty's relatives, and Pat becomes frustrated over being kept in the dark about the case.



Love and Death S01E05 The Arrest 1080p AMZN WEBRip DDP5 1 x264-NTb EZTV
Love & Death S1E5 Screenshot


General
Unique ID: 23785276267507085233419983763877464338 (0x11E4E0A913BB80A45F1AA003297D0912)
Complete name: Love.and.Death.S01E05.The.Arrest.1080p.AMZN.WEB-DL.DDP5.1.H.264-NTb.mkv
Format: Matroska
Format version: Version 4
File size: 2.46 GiB
Duration: 52 min 45 s
Overall bit rate: 6 674 kb/s
Writing application: mkvmerge v75.0.0 ('Goliath') 64-bit
Writing library: libebml v1.4.4 + libmatroska v1.7.1

Video
ID: 1
Format: AVC
Format/Info: Advanced Video Codec
Format profile: High@L4
Format settings: CABAC / 4 Ref Frames
Format settings, CABAC: Yes
Format settings, Reference frames: 4 frames
Codec ID: V_MPEG4/ISO/AVC
Duration: 52 min 45 s
Bit rate mode: Constant
Bit rate: 6 029 kb/s
Nominal bit rate: 10 000 kb/s
Width: 1 920 pixels
Height: 960 pixels
Display aspect ratio: 2.000
Frame rate mode: Constant
Frame rate: 24.000 FPS
Color space: YUV
Chroma subsampling: 4:2:0
Bit depth: 8 bits
Scan type: Progressive
Bits/(Pixel*Frame): 0.136
Stream size: 2.22 GiB (90%)
Default: Yes
Forced: No
Color range: Limited
Color primaries: BT.709
Transfer characteristics: BT.709
Matrix coefficients: BT.709

Audio
ID: 2
Format: E-AC-3
Format/Info: Enhanced AC-3
Commercial name: Dolby Digital Plus
Codec ID: A_EAC3
Duration: 52 min 45 s
Bit rate mode: Constant
Bit rate: 640 kb/s
Channel(s): 6 channels
Channel layout: L R C LFE Ls Rs
Sampling rate: 48.0 kHz
Frame rate: 31.250 FPS (1536 SPF)
Compression mode: Lossy
Stream size: 242 MiB (10%)
Language: English
Service kind: Complete Main
Default: Yes
Forced: No

Text #1
ID: 3
Format: UTF-8
Codec ID: S_TEXT/UTF8
Codec ID/Info: UTF-8 Plain Text
Duration: 49 min 20 s
Bit rate: 69 b/s
Frame rate: 0.260 FPS
Count of elements: 769
Stream size: 25.1 KiB (0%)
Language: English (US)
Default: No
Forced: No

Text #2
ID: 4
Format: UTF-8
Codec ID: S_TEXT/UTF8
Codec ID/Info: UTF-8 Plain Text
Duration: 52 min 38 s
Bit rate: 86 b/s
Frame rate: 0.338 FPS
Count of elements: 1068
Stream size: 33.5 KiB (0%)
Title: SDH
Language: English (US)
Default: No
Forced: No

Text #3
ID: 5
Format: UTF-8
Codec ID: S_TEXT/UTF8
Codec ID/Info: UTF-8 Plain Text
Duration: 52 min 27 s
Bit rate: 94 b/s
Frame rate: 0.249 FPS
Count of elements: 784
Stream size: 36.1 KiB (0%)
Language: Bulgarian (BG)
Default: No
Forced: No

Text #4
ID: 6
Format: UTF-8
Codec ID: S_TEXT/UTF8
Codec ID/Info: UTF-8 Plain Text
Duration: 52 min 27 s
Bit rate: 58 b/s
Frame rate: 0.250 FPS
Count of elements: 786
Stream size: 22.5 KiB (0%)
Language: Czech (CZ)
Default: No
Forced: No

Text #5
ID: 7
Format: UTF-8
Codec ID: S_TEXT/UTF8
Codec ID/Info: UTF-8 Plain Text
Duration: 52 min 27 s
Bit rate: 57 b/s
Frame rate: 0.249 FPS
Count of elements: 785
Stream size: 22.2 KiB (0%)
Language: Danish (DK)
Default: No
Forced: No

Text #6
ID: 8
Format: UTF-8
Codec ID: S_TEXT/UTF8
Codec ID/Info: UTF-8 Plain Text
Duration: 52 min 27 s
Bit rate: 61 b/s
Frame rate: 0.250 FPS
Count of elements: 786
Stream size: 23.6 KiB (0%)
Title: Spanish (Latin America)
Language: Spanish (Latin America)
Default: No
Forced: No

Text #7
ID: 9
Format: UTF-8
Codec ID: S_TEXT/UTF8
Codec ID/Info: UTF-8 Plain Text
Duration: 50 min 7 s
Bit rate: 67 b/s
Frame rate: 0.236 FPS
Count of elements: 711
Stream size: 24.8 KiB (0%)
Title: Spanish (Spain)
Language: Spanish (ES)
Default: No
Forced: No

Text #8
ID: 10
Format: UTF-8
Codec ID: S_TEXT/UTF8
Codec ID/Info: UTF-8 Plain Text
Duration: 52 min 27 s
Bit rate: 54 b/s
Frame rate: 0.249 FPS
Count of elements: 783
Stream size: 20.9 KiB (0%)
Language: Finnish (FI)
Default: No
Forced: No

Text #9
ID: 11
Format: UTF-8
Codec ID: S_TEXT/UTF8
Codec ID/Info: UTF-8 Plain Text
Duration: 52 min 27 s
Bit rate: 54 b/s
Frame rate: 0.250 FPS
Count of elements: 786
Stream size: 20.9 KiB (0%)
Language: Croatian (HR)
Default: No
Forced: No

Text #10
ID: 12
Format: UTF-8
Codec ID: S_TEXT/UTF8
Codec ID/Info: UTF-8 Plain Text
Duration: 52 min 27 s
Bit rate: 57 b/s
Frame rate: 0.250 FPS
Count of elements: 786
Stream size: 22.1 KiB (0%)
Language: Hungarian (HU)
Default: No
Forced: No

Text #11
ID: 13
Format: UTF-8
Codec ID: S_TEXT/UTF8
Codec ID/Info: UTF-8 Plain Text
Duration: 52 min 27 s
Bit rate: 110 b/s
Frame rate: 0.250 FPS
Count of elements: 786
Stream size: 42.5 KiB (0%)
Language: Macedonian (MK)
Default: No
Forced: No

Text #12
ID: 14
Format: UTF-8
Codec ID: S_TEXT/UTF8
Codec ID/Info: UTF-8 Plain Text
Duration: 52 min 27 s
Bit rate: 55 b/s
Frame rate: 0.234 FPS
Count of elements: 736
Stream size: 21.5 KiB (0%)
Language: Dutch (NL)
Default: No
Forced: No

Text #13
ID: 15
Format: UTF-8
Codec ID: S_TEXT/UTF8
Codec ID/Info: UTF-8 Plain Text
Duration: 52 min 27 s
Bit rate: 54 b/s
Frame rate: 0.249 FPS
Count of elements: 785
Stream size: 21.0 KiB (0%)
Language: Norwegian (NO)
Default: No
Forced: No

Text #14
ID: 16
Format: UTF-8
Codec ID: S_TEXT/UTF8
Codec ID/Info: UTF-8 Plain Text
Duration: 52 min 27 s
Bit rate: 52 b/s
Frame rate: 0.249 FPS
Count of elements: 784
Stream size: 20.3 KiB (0%)
Language: Polish (PL)
Default: No
Forced: No

Text #15
ID: 17
Format: UTF-8
Codec ID: S_TEXT/UTF8
Codec ID/Info: UTF-8 Plain Text
Duration: 52 min 27 s
Bit rate: 56 b/s
Frame rate: 0.250 FPS
Count of elements: 786
Stream size: 21.6 KiB (0%)
Title: Portuguese (Brazil)
Language: Portuguese (BR)
Default: No
Forced: No

Text #16
ID: 18
Format: UTF-8
Codec ID: S_TEXT/UTF8
Codec ID/Info: UTF-8 Plain Text
Duration: 52 min 27 s
Bit rate: 64 b/s
Frame rate: 0.249 FPS
Count of elements: 785
Stream size: 24.9 KiB (0%)
Title: Portuguese (Portugal)
Language: Portuguese (PT)
Default: No
Forced: No

Text #17
ID: 19
Format: UTF-8
Codec ID: S_TEXT/UTF8
Codec ID/Info: UTF-8 Plain Text
Duration: 52 min 27 s
Bit rate: 64 b/s
Frame rate: 0.250 FPS
Count of elements: 786
Stream size: 24.9 KiB (0%)
Language: Romanian (RO)
Default: No
Forced: No

Text #18
ID: 20
Format: UTF-8
Codec ID: S_TEXT/UTF8
Codec ID/Info: UTF-8 Plain Text
Duration: 52 min 27 s
Bit rate: 99 b/s
Frame rate: 0.250 FPS
Count of elements: 786
Stream size: 38.3 KiB (0%)
Language: Russian (RU)
Default: No
Forced: No

Text #19
ID: 21
Format: UTF-8
Codec ID: S_TEXT/UTF8
Codec ID/Info: UTF-8 Plain Text
Duration: 52 min 27 s
Bit rate: 57 b/s
Frame rate: 0.250 FPS
Count of elements: 786
Stream size: 22.0 KiB (0%)
Language: Slovenian (SI)
Default: No
Forced: No

Text #20
ID: 22
Format: UTF-8
Codec ID: S_TEXT/UTF8
Codec ID/Info: UTF-8 Plain Text
Duration: 51 min 7 s
Bit rate: 60 b/s
Frame rate: 0.256 FPS
Count of elements: 784
Stream size: 22.7 KiB (0%)
Language: Serbian-Latn-RS
Default: No
Forced: No

Text #21
ID: 23
Format: UTF-8
Codec ID: S_TEXT/UTF8
Codec ID/Info: UTF-8 Plain Text
Duration: 52 min 27 s
Bit rate: 61 b/s
Frame rate: 0.249 FPS
Count of elements: 783
Stream size: 23.8 KiB (0%)
Language: Swedish (SE)
Default: No
Forced: No

Menu
00:00:00.000: en:Chapter 1
00:00:05.031: en:Intro
00:01:34.955: en:Chapter 2
00:11:22.457: en:Chapter 3
00:23:34.897: en:Chapter 4
00:31:39.882: en:Chapter 5
00:41:49.282: en:Chapter 6
00:51:44.025: en:Credits
ssl  EZTV RSS EZTV Status | EZTV API | DMCA: [email protected]