eztvx.to | eztvstatus.org
Search title:  
TV Packs only
 

Love and Death S01E04 Do No Evil 1080p AMZN WEBRip DDP5 1 x264-NTb EZTV

Episode Breakdown
Love & Death
Love & Death TV Show S01E04

Season: 1
Episode: 4
Air Date: 4 May, 2023
Download Links
     Torrent Download     Magnet Download
     Anonymous Download
Added 1 year ago by eztv (verified).
Tracker Statistics
Seeds: 2
Peers: 0
Stats generated @ 15:42 on 27th May 2024
Torrent Info
Torrent File: Love.and.Death.S01E04.Do.No.Evil.1080p.AMZN.WEB-DL.DDP5.1.H.264-NTb[eztv.re].mkv
Torrent Hash: C1605307923EF80F936F55F0F72D6261C5F44E06
Filesize: 3.16 GB
Released: 4th May 2023

File Format: MKV (Matroska)
Resolution: 1920x1080 px
Aspect Ratio: 16:9
Alternate Releases S L
Love and Death S01E04 720p WEB h264-ETHEL 0 0
Love and Death S01E04 1080p WEB H264-CAKES 9 0
Love and Death S01E04 XviD-AFG 2 0
Love and Death S01E04 480p x264-mSD 1 0
Love and Death S01E04 720p HEVC x265-MeGusta 0 0
Love and Death S01E04 1080p HEVC x265-MeGusta 5 0
Love and Death S01E04 Do No Evil 1080p HMAX WEBRip DDP5 1 x264-NTb 1 3

Love & Death S01E04 - Do No Evil

Summary:

Following a grisly struggle, Candy attempts to go about her day as normal, while Allan grows concerned when his repeated calls to Betty go unanswered.



Love and Death S01E04 Do No Evil 1080p AMZN WEBRip DDP5 1 x264-NTb EZTV
Love & Death S1E4 Screenshot


General
Unique ID: 126222999509230539883348114101834804662 (0x5EF5AA5A70E5D45E49188D782BF6EDB6)
Complete name: Love.and.Death.S01E04.Do.No.Evil.1080p.AMZN.WEB-DL.DDP5.1.H.264-NTb.mkv
Format: Matroska
Format version: Version 4
File size: 3.16 GiB
Duration: 51 min 49 s
Overall bit rate: 8 732 kb/s
Writing application: mkvmerge v75.0.0 ('Goliath') 64-bit
Writing library: libebml v1.4.4 + libmatroska v1.7.1

Video
ID: 1
Format: AVC
Format/Info: Advanced Video Codec
Format profile: High@L4
Format settings: CABAC / 4 Ref Frames
Format settings, CABAC: Yes
Format settings, Reference frames: 4 frames
Codec ID: V_MPEG4/ISO/AVC
Duration: 51 min 49 s
Bit rate mode: Constant
Bit rate: 8 090 kb/s
Nominal bit rate: 10 000 kb/s
Width: 1 920 pixels
Height: 960 pixels
Display aspect ratio: 2.000
Frame rate mode: Constant
Frame rate: 24.000 FPS
Color space: YUV
Chroma subsampling: 4:2:0
Bit depth: 8 bits
Scan type: Progressive
Bits/(Pixel*Frame): 0.183
Stream size: 2.93 GiB (93%)
Default: Yes
Forced: No
Color range: Limited
Color primaries: BT.709
Transfer characteristics: BT.709
Matrix coefficients: BT.709

Audio
ID: 2
Format: E-AC-3
Format/Info: Enhanced AC-3
Commercial name: Dolby Digital Plus
Codec ID: A_EAC3
Duration: 51 min 49 s
Bit rate mode: Constant
Bit rate: 640 kb/s
Channel(s): 6 channels
Channel layout: L R C LFE Ls Rs
Sampling rate: 48.0 kHz
Frame rate: 31.250 FPS (1536 SPF)
Compression mode: Lossy
Stream size: 237 MiB (7%)
Language: English
Service kind: Complete Main
Default: Yes
Forced: No

Text #1
ID: 3
Format: UTF-8
Codec ID: S_TEXT/UTF8
Codec ID/Info: UTF-8 Plain Text
Duration: 48 min 34 s
Bit rate: 50 b/s
Frame rate: 0.181 FPS
Count of elements: 528
Stream size: 17.9 KiB (0%)
Language: English (US)
Default: No
Forced: No

Text #2
ID: 4
Format: UTF-8
Codec ID: S_TEXT/UTF8
Codec ID/Info: UTF-8 Plain Text
Duration: 50 min 40 s
Bit rate: 70 b/s
Frame rate: 0.289 FPS
Count of elements: 879
Stream size: 26.1 KiB (0%)
Title: SDH
Language: English (US)
Default: No
Forced: No

Text #3
ID: 5
Format: UTF-8
Codec ID: S_TEXT/UTF8
Codec ID/Info: UTF-8 Plain Text
Duration: 51 min 30 s
Bit rate: 43 b/s
Frame rate: 0.180 FPS
Count of elements: 555
Stream size: 16.5 KiB (0%)
Language: Spanish (Latin America)
Default: No
Forced: No

Text #4
ID: 6
Format: UTF-8
Codec ID: S_TEXT/UTF8
Codec ID/Info: UTF-8 Plain Text
Duration: 51 min 31 s
Bit rate: 40 b/s
Frame rate: 0.180 FPS
Count of elements: 556
Stream size: 15.1 KiB (0%)
Language: Portuguese (BR)
Default: No
Forced: No

Menu
00:00:00.000: en:Chapter 1
00:00:05.031: en:Intro
00:01:38.208: en:Chapter 2
00:10:14.890: en:Chapter 3
00:25:26.342: en:Chapter 4
00:34:13.035: en:Chapter 5
00:41:31.097: en:Chapter 6
00:50:48.025: en:Credits
ssl  EZTV RSS EZTV Status | EZTV API | DMCA: [email protected]