eztvx.to | eztvstatus.org
Search title:  
TV Packs only
 

NCIS Hawaii S02E19 Cabin Fever 1080p AMZN WEBRip DDP5 1 x264-NTb EZTV

Episode Breakdown
NCIS: Hawai'i
NCIS: Hawai'i TV Show S02E19

Season: 2
Episode: 19
Air Date: 1 May, 2023
Download Links
     Torrent Download     Magnet Download
     Anonymous Download
Added 1 year ago by eztv (verified).
Tracker Statistics
Seeds: 0
Peers: 0
Stats generated @ 02:20 on 30th May 2024
Torrent Info
Torrent File: NCIS.Hawaii.S02E19.Cabin.Fever.1080p.AMZN.WEB-DL.DDP5.1.H.264-NTb[eztv.re].mkv
Torrent Hash: 096D45B1234CDC45E6B94F39289A03BC1528AFBC
Filesize: 2.39 GB
Released: 2nd May 2023

File Format: MKV (Matroska)
Resolution: 1920x1080 px
Aspect Ratio: 16:9
Alternate Releases S L
NCIS Hawaii S02E19 XviD-AFG 1 0
NCIS Hawaii S02E19 720p HEVC x265-MeGusta 5 0
NCIS Hawaii S02E19 MULTi 1080p HDTV H264-S4LVE 0 0
NCIS Hawaii S02E19 720p HDTV x264-SYNCOPY 3 0
NCIS Hawaii S02E19 480p x264-mSD 4 0
NCIS Hawaii S02E19 1080p WEB H264-CAKES 2 0
NCIS Hawaii S02E19 1080p HEVC x265-MeGusta 2 0

NCIS: Hawai'i S02E19 - Cabin Fever

Summary:

After the mysterious death of an astronaut in a highly sensitive Mars simulation, the NCIS team must send Ernie into the habitat to investigate alone.



NCIS Hawaii S02E19 Cabin Fever 1080p AMZN WEBRip DDP5 1 x264-NTb EZTV
NCIS: Hawai'i S2E19 Screenshot


General
Unique ID: 118162480974278686122555391624629411791 (0x58E5441B45C1526BAF8B56494DAB5FCF)
Complete name: NCIS.Hawaii.S02E19.Cabin.Fever.1080p.AMZN.WEB-DL.DDP5.1.H.264-NTb.mkv
Format: Matroska
Format version: Version 4
File size: 2.39 GiB
Duration: 40 min 50 s
Overall bit rate: 8 368 kb/s
Writing application: mkvmerge v74.0.0 ('You Oughta Know') 64-bit
Writing library: libebml v1.4.4 + libmatroska v1.7.1

Video
ID: 1
Format: AVC
Format/Info: Advanced Video Codec
Format profile: High@L4
Format settings: CABAC / 4 Ref Frames
Format settings, CABAC: Yes
Format settings, Reference frames: 4 frames
Codec ID: V_MPEG4/ISO/AVC
Duration: 40 min 50 s
Bit rate mode: Constant
Bit rate: 7 725 kb/s
Nominal bit rate: 10 000 kb/s
Width: 1 920 pixels
Height: 1 080 pixels
Display aspect ratio: 16:9
Frame rate mode: Constant
Frame rate: 24.000 FPS
Color space: YUV
Chroma subsampling: 4:2:0
Bit depth: 8 bits
Scan type: Progressive
Bits/(Pixel*Frame): 0.155
Stream size: 2.20 GiB (92%)
Default: Yes
Forced: No
Color range: Limited
Color primaries: BT.709
Transfer characteristics: BT.709
Matrix coefficients: BT.709

Audio
ID: 2
Format: E-AC-3
Format/Info: Enhanced AC-3
Commercial name: Dolby Digital Plus
Codec ID: A_EAC3
Duration: 40 min 50 s
Bit rate mode: Constant
Bit rate: 640 kb/s
Channel(s): 6 channels
Channel layout: L R C LFE Ls Rs
Sampling rate: 48.0 kHz
Frame rate: 31.250 FPS (1536 SPF)
Compression mode: Lossy
Stream size: 187 MiB (8%)
Language: English (US)
Service kind: Complete Main
Default: Yes
Forced: No

Text #1
ID: 3
Format: UTF-8
Codec ID: S_TEXT/UTF8
Codec ID/Info: UTF-8 Plain Text
Duration: 40 min 25 s
Bit rate: 95 b/s
Frame rate: 0.369 FPS
Count of elements: 894
Stream size: 28.2 KiB (0%)
Language: English (US)
Default: No
Forced: No

Text #2
ID: 4
Format: UTF-8
Codec ID: S_TEXT/UTF8
Codec ID/Info: UTF-8 Plain Text
Duration: 40 min 25 s
Bit rate: 99 b/s
Frame rate: 0.386 FPS
Count of elements: 936
Stream size: 29.3 KiB (0%)
Title: SDH
Language: English (US)
Default: No
Forced: No
ssl  EZTV RSS EZTV Status | EZTV API | DMCA: [email protected]