eztvx.to | eztvstatus.org
Search title:  
TV Packs only
 

Love and Death S01E03 Stepping Stone 1080p HMAX WEBRip DDP5 1 x264-NTb EZTV

Episode Breakdown
Love & Death
Love & Death TV Show S01E03

Season: 1
Episode: 3
Air Date: 27 April, 2023
Download Links
     Torrent Download     Magnet Download
     Anonymous Download
Added 1 year ago by eztv (verified).
Tracker Statistics
Seeds: 2
Peers: 0
Stats generated @ 20:31 on 23rd Jun 2024
Torrent Info
Torrent File: Love.and.Death.S01E03.Stepping.Stone.1080p.HMAX.WEB-DL.DDP5.1.H.264-NTb[eztv.re].mkv
Torrent Hash: 711CE0ED7BEAEB6361ED1D6A06430346690E18BE
Filesize: 3.63 GB
Released: 27th Apr 2023

File Format: MKV (Matroska)
Resolution: 1920x1080 px
Aspect Ratio: 16:9
Alternate Releases S L
Love and Death S01E03 720p WEB H264-CAKES 1 0
Love and Death S01E03 1080p WEB H264-CAKES 3 0
Love and Death S01E03 720p HEVC x265-MeGusta 0 0
Love and Death S01E03 480p x264-mSD 2 0
Love and Death S01E03 Stepping Stone 1080p AMZN WEBRip DDP5 1 x264-NTb 0 0
Love and Death S01E03 XviD-AFG 1 0
Love and Death S01E03 1080p HEVC x265-MeGusta 3 0

Love & Death S01E03 - Stepping Stone

Summary:

A sense of normalcy returns after Candy is forced to take stock of her own marriage, but Pat soon makes a discovery that leads him to seek answers from Sherry.



Love and Death S01E03 Stepping Stone 1080p HMAX WEBRip DDP5 1 x264-NTb EZTV
Love & Death S1E3 Screenshot


General
Unique ID: 330967714170424736151309927385569616680 (0xF8FE1029972F4F9C0A9E80E9AB06E328)
Complete name: Love.and.Death.S01E03.Stepping.Stone.1080p.HMAX.WEB-DL.DDP5.1.H.264-NTb.mkv
Format: Matroska
Format version: Version 4
File size: 3.63 GiB
Duration: 58 min 32 s
Overall bit rate mode: Variable
Overall bit rate: 8 882 kb/s
Writing application: mkvmerge v75.0.0 ('Goliath') 64-bit
Writing library: libebml v1.4.4 + libmatroska v1.7.1

Video
ID: 1
Format: AVC
Format/Info: Advanced Video Codec
Format profile: High@L4
Format settings: CABAC / 4 Ref Frames
Format settings, CABAC: Yes
Format settings, Reference frames: 4 frames
Codec ID: V_MPEG4/ISO/AVC
Duration: 58 min 32 s
Bit rate mode: Variable
Bit rate: 8 250 kb/s
Maximum bit rate: 12.4 Mb/s
Width: 1 920 pixels
Height: 1 080 pixels
Display aspect ratio: 16:9
Frame rate mode: Constant
Frame rate: 23.976 (24000/1001) FPS
Color space: YUV
Chroma subsampling: 4:2:0
Bit depth: 8 bits
Scan type: Progressive
Bits/(Pixel*Frame): 0.166
Stream size: 3.37 GiB (93%)
Writing library: x264 core 157 r2965 861cec4
Encoding settings: cabac=1 / ref=4 / deblock=1:0:0 / analyse=0x3:0x113 / me=hex / subme=7 / psy=1 / psy_rd=1.00:0.00 / mixed_ref=1 / me_range=16 / chroma_me=1 / trellis=1 / 8x8dct=1 / cqm=0 / deadzone=21,11 / fast_pskip=1 / chroma_qp_offset=-2 / threads=34 / lookahead_threads=5 / sliced_threads=0 / nr=0 / decimate=1 / interlaced=0 / bluray_compat=0 / constrained_intra=0 / bframes=3 / b_pyramid=2 / b_adapt=1 / b_bias=0 / direct=1 / weightb=1 / open_gop=0 / weightp=2 / keyint=96 / keyint_min=96 / scenecut=40 / intra_refresh=0 / rc_lookahead=40 / rc=2pass / mbtree=1 / bitrate=8250 / ratetol=1.0 / qcomp=0.60 / qpmin=0 / qpmax=69 / qpstep=4 / cplxblur=20.0 / qblur=0.5 / vbv_maxrate=12375 / vbv_bufsize=6187 / nal_hrd=vbr / filler=0 / ip_ratio=1.40 / aq=1:1.00
Default: Yes
Forced: No
Color range: Limited
Color primaries: BT.709
Transfer characteristics: BT.709
Matrix coefficients: BT.709

Audio
ID: 2
Format: E-AC-3
Format/Info: Enhanced AC-3
Commercial name: Dolby Digital Plus
Codec ID: A_EAC3
Duration: 58 min 32 s
Bit rate mode: Constant
Bit rate: 640 kb/s
Channel(s): 6 channels
Channel layout: L R C LFE Ls Rs
Sampling rate: 48.0 kHz
Frame rate: 31.250 FPS (1536 SPF)
Compression mode: Lossy
Stream size: 268 MiB (7%)
Language: English
Service kind: Complete Main
Default: Yes
Forced: No

Text #1
ID: 3
Format: UTF-8
Codec ID: S_TEXT/UTF8
Codec ID/Info: UTF-8 Plain Text
Duration: 54 min 49 s
Bit rate: 66 b/s
Frame rate: 0.239 FPS
Count of elements: 786
Stream size: 26.6 KiB (0%)
Language: English (US)
Default: No
Forced: No

Text #2
ID: 4
Format: UTF-8
Codec ID: S_TEXT/UTF8
Codec ID/Info: UTF-8 Plain Text
Duration: 58 min 21 s
Bit rate: 86 b/s
Frame rate: 0.307 FPS
Count of elements: 1075
Stream size: 36.8 KiB (0%)
Title: SDH
Language: English (US)
Default: No
Forced: No

Text #3
ID: 5
Format: UTF-8
Codec ID: S_TEXT/UTF8
Codec ID/Info: UTF-8 Plain Text
Duration: 58 min 13 s
Bit rate: 90 b/s
Frame rate: 0.225 FPS
Count of elements: 785
Stream size: 38.6 KiB (0%)
Language: Bulgarian (BG)
Default: No
Forced: No

Text #4
ID: 6
Format: UTF-8
Codec ID: S_TEXT/UTF8
Codec ID/Info: UTF-8 Plain Text
Duration: 58 min 13 s
Bit rate: 54 b/s
Frame rate: 0.226 FPS
Count of elements: 789
Stream size: 23.1 KiB (0%)
Language: Czech (CZ)
Default: No
Forced: No

Text #5
ID: 7
Format: UTF-8
Codec ID: S_TEXT/UTF8
Codec ID/Info: UTF-8 Plain Text
Duration: 58 min 13 s
Bit rate: 56 b/s
Frame rate: 0.225 FPS
Count of elements: 786
Stream size: 24.1 KiB (0%)
Language: Danish (DK)
Default: No
Forced: No

Text #6
ID: 8
Format: UTF-8
Codec ID: S_TEXT/UTF8
Codec ID/Info: UTF-8 Plain Text
Duration: 58 min 13 s
Bit rate: 55 b/s
Frame rate: 0.227 FPS
Count of elements: 792
Stream size: 23.5 KiB (0%)
Title: Spanish (Latin America)
Language: Spanish (Latin America)
Default: No
Forced: No

Text #7
ID: 9
Format: UTF-8
Codec ID: S_TEXT/UTF8
Codec ID/Info: UTF-8 Plain Text
Duration: 55 min 50 s
Bit rate: 63 b/s
Frame rate: 0.215 FPS
Count of elements: 721
Stream size: 25.9 KiB (0%)
Title: Spanish (Spain)
Language: Spanish (ES)
Default: No
Forced: No

Text #8
ID: 10
Format: UTF-8
Codec ID: S_TEXT/UTF8
Codec ID/Info: UTF-8 Plain Text
Duration: 56 min 43 s
Bit rate: 50 b/s
Frame rate: 0.230 FPS
Count of elements: 782
Stream size: 21.2 KiB (0%)
Language: Finnish (FI)
Default: No
Forced: No

Text #9
ID: 11
Format: UTF-8
Codec ID: S_TEXT/UTF8
Codec ID/Info: UTF-8 Plain Text
Duration: 58 min 13 s
Bit rate: 51 b/s
Frame rate: 0.226 FPS
Count of elements: 790
Stream size: 21.8 KiB (0%)
Language: Croatian (HR)
Default: No
Forced: No

Text #10
ID: 12
Format: UTF-8
Codec ID: S_TEXT/UTF8
Codec ID/Info: UTF-8 Plain Text
Duration: 58 min 13 s
Bit rate: 55 b/s
Frame rate: 0.226 FPS
Count of elements: 788
Stream size: 23.7 KiB (0%)
Language: Hungarian (HU)
Default: No
Forced: No

Text #11
ID: 13
Format: UTF-8
Codec ID: S_TEXT/UTF8
Codec ID/Info: UTF-8 Plain Text
Duration: 58 min 13 s
Bit rate: 103 b/s
Frame rate: 0.227 FPS
Count of elements: 793
Stream size: 44.2 KiB (0%)
Language: Macedonian (MK)
Default: No
Forced: No

Text #12
ID: 14
Format: UTF-8
Codec ID: S_TEXT/UTF8
Codec ID/Info: UTF-8 Plain Text
Duration: 58 min 13 s
Bit rate: 53 b/s
Frame rate: 0.208 FPS
Count of elements: 728
Stream size: 22.8 KiB (0%)
Language: Dutch (NL)
Default: No
Forced: No

Text #13
ID: 15
Format: UTF-8
Codec ID: S_TEXT/UTF8
Codec ID/Info: UTF-8 Plain Text
Duration: 58 min 13 s
Bit rate: 53 b/s
Frame rate: 0.226 FPS
Count of elements: 789
Stream size: 23.0 KiB (0%)
Language: Norwegian (NO)
Default: No
Forced: No

Text #14
ID: 16
Format: UTF-8
Codec ID: S_TEXT/UTF8
Codec ID/Info: UTF-8 Plain Text
Duration: 58 min 13 s
Bit rate: 46 b/s
Frame rate: 0.226 FPS
Count of elements: 790
Stream size: 19.8 KiB (0%)
Language: Polish (PL)
Default: No
Forced: No

Text #15
ID: 17
Format: UTF-8
Codec ID: S_TEXT/UTF8
Codec ID/Info: UTF-8 Plain Text
Duration: 58 min 13 s
Bit rate: 53 b/s
Frame rate: 0.226 FPS
Count of elements: 791
Stream size: 22.7 KiB (0%)
Title: Portuguese (Brazil)
Language: Portuguese (BR)
Default: No
Forced: No

Text #16
ID: 18
Format: UTF-8
Codec ID: S_TEXT/UTF8
Codec ID/Info: UTF-8 Plain Text
Duration: 58 min 13 s
Bit rate: 60 b/s
Frame rate: 0.226 FPS
Count of elements: 788
Stream size: 25.9 KiB (0%)
Title: Portuguese (Portugal)
Language: Portuguese (PT)
Default: No
Forced: No

Text #17
ID: 19
Format: UTF-8
Codec ID: S_TEXT/UTF8
Codec ID/Info: UTF-8 Plain Text
Duration: 58 min 13 s
Bit rate: 62 b/s
Frame rate: 0.227 FPS
Count of elements: 792
Stream size: 26.5 KiB (0%)
Language: Romanian (RO)
Default: No
Forced: No

Text #18
ID: 20
Format: UTF-8
Codec ID: S_TEXT/UTF8
Codec ID/Info: UTF-8 Plain Text
Duration: 58 min 13 s
Bit rate: 53 b/s
Frame rate: 0.226 FPS
Count of elements: 789
Stream size: 22.6 KiB (0%)
Language: Slovenian (SI)
Default: No
Forced: No

Text #19
ID: 21
Format: UTF-8
Codec ID: S_TEXT/UTF8
Codec ID/Info: UTF-8 Plain Text
Duration: 58 min 13 s
Bit rate: 55 b/s
Frame rate: 0.226 FPS
Count of elements: 791
Stream size: 23.6 KiB (0%)
Language: Serbian-Latn-RS
Default: No
Forced: No

Text #20
ID: 22
Format: UTF-8
Codec ID: S_TEXT/UTF8
Codec ID/Info: UTF-8 Plain Text
Duration: 58 min 13 s
Bit rate: 62 b/s
Frame rate: 0.225 FPS
Count of elements: 787
Stream size: 26.4 KiB (0%)
Language: Swedish (SE)
Default: No
Forced: No

Menu
00:00:00.000: Chapter 1
00:00:06.006: Intro
00:01:39.142: Chapter 2
00:11:12.713: Chapter 3
00:23:35.664: Chapter 4
00:34:49.378: Chapter 5
00:45:24.555: Chapter 6
00:57:30.000: Credits
ssl  EZTV RSS EZTV Status | EZTV API | DMCA: [email protected]