eztvx.to | eztvstatus.org
Search title:  
TV Packs only
 

Love and Death S01E02 Encounters 1080p HMAX WEBRip DDP5 1 x264-NTb EZTV

Episode Breakdown
Love & Death
Love & Death TV Show S01E02

Season: 1
Episode: 2
Air Date: 27 April, 2023
Download Links
     Torrent Download     Magnet Download
     Anonymous Download
Added 10 months ago by eztv (verified).
Tracker Statistics
Seeds: 7
Peers: 14
Stats generated @ 03:12 on 28th Feb 2024
Torrent Info
Torrent File: Love.and.Death.S01E02.Encounters.1080p.HMAX.WEB-DL.DDP5.1.H.264-NTb[eztv.re].mkv
Torrent Hash: CF8B978DDC462D1F8CD7B72DDBAF554D5B5B1333
Filesize: 3.36 GB
Released: 27th Apr 2023

File Format: MKV (Matroska)
Resolution: 1920x1080 px
Aspect Ratio: 16:9
Alternate Releases S L
Love and Death S01E02 480p x264-mSD 7 4
Love and Death S01E02 720p WEB H264-CAKES 6 5
Love and Death S01E02 720p HEVC x265-MeGusta 0 0
Love and Death S01E02 Encounters 1080p AMZN WEBRip DDP5 1 x264-NTb 7 4
Love and Death S01E02 XviD-AFG 0 0
Love and Death S01E02 1080p HEVC x265-MeGusta 5 3
Love and Death S01E02 MULTi 1080p WEB H264-AMB3R 5 12

Love & Death S01E02 - Encounters

Summary:

As their affair continues, Candy fears that she and Allan are at risk of breaking their first rule – no feelings. Later, Candy bristles at news that Allan and Betty have signed up for a Christian marriage retreat.



Love and Death S01E02 Encounters 1080p HMAX WEBRip DDP5 1 x264-NTb EZTV
Love & Death S1E2 Screenshot


General
Unique ID: 300395377050578229123146176323138341328 (0xE1FE0B91077B02ED3B33867A0B67C9D0)
Complete name: Love.and.Death.S01E02.Encounters.1080p.HMAX.WEB-DL.DDP5.1.H.264-NTb.mkv
Format: Matroska
Format version: Version 4
File size: 3.36 GiB
Duration: 54 min 17 s
Overall bit rate mode: Variable
Overall bit rate: 8 870 kb/s
Writing application: mkvmerge v75.0.0 ('Goliath') 64-bit
Writing library: libebml v1.4.4 + libmatroska v1.7.1

Video
ID: 1
Format: AVC
Format/Info: Advanced Video Codec
Format profile: High@L4
Format settings: CABAC / 4 Ref Frames
Format settings, CABAC: Yes
Format settings, Reference frames: 4 frames
Codec ID: V_MPEG4/ISO/AVC
Duration: 54 min 17 s
Bit rate mode: Variable
Bit rate: 8 250 kb/s
Maximum bit rate: 12.4 Mb/s
Width: 1 920 pixels
Height: 1 080 pixels
Display aspect ratio: 16:9
Frame rate mode: Constant
Frame rate: 23.976 (24000/1001) FPS
Color space: YUV
Chroma subsampling: 4:2:0
Bit depth: 8 bits
Scan type: Progressive
Bits/(Pixel*Frame): 0.166
Stream size: 3.12 GiB (93%)
Writing library: x264 core 157 r2965 861cec4
Encoding settings: cabac=1 / ref=4 / deblock=1:0:0 / analyse=0x3:0x113 / me=hex / subme=7 / psy=1 / psy_rd=1.00:0.00 / mixed_ref=1 / me_range=16 / chroma_me=1 / trellis=1 / 8x8dct=1 / cqm=0 / deadzone=21,11 / fast_pskip=1 / chroma_qp_offset=-2 / threads=34 / lookahead_threads=5 / sliced_threads=0 / nr=0 / decimate=1 / interlaced=0 / bluray_compat=0 / constrained_intra=0 / bframes=3 / b_pyramid=2 / b_adapt=1 / b_bias=0 / direct=1 / weightb=1 / open_gop=0 / weightp=2 / keyint=96 / keyint_min=96 / scenecut=40 / intra_refresh=0 / rc_lookahead=40 / rc=2pass / mbtree=1 / bitrate=8250 / ratetol=1.0 / qcomp=0.60 / qpmin=0 / qpmax=69 / qpstep=4 / cplxblur=20.0 / qblur=0.5 / vbv_maxrate=12375 / vbv_bufsize=6187 / nal_hrd=vbr / filler=0 / ip_ratio=1.40 / aq=1:1.00
Default: Yes
Forced: No
Color range: Limited
Color primaries: BT.709
Transfer characteristics: BT.709
Matrix coefficients: BT.709

Audio
ID: 2
Format: E-AC-3
Format/Info: Enhanced AC-3
Commercial name: Dolby Digital Plus
Codec ID: A_EAC3
Duration: 54 min 17 s
Bit rate mode: Constant
Bit rate: 640 kb/s
Channel(s): 6 channels
Channel layout: L R C LFE Ls Rs
Sampling rate: 48.0 kHz
Frame rate: 31.250 FPS (1536 SPF)
Compression mode: Lossy
Stream size: 249 MiB (7%)
Language: English
Service kind: Complete Main
Default: Yes
Forced: No

Text #1
ID: 3
Format: UTF-8
Codec ID: S_TEXT/UTF8
Codec ID/Info: UTF-8 Plain Text
Duration: 49 min 37 s
Bit rate: 55 b/s
Frame rate: 0.209 FPS
Count of elements: 621
Stream size: 20.0 KiB (0%)
Language: English (US)
Default: No
Forced: No

Text #2
ID: 4
Format: UTF-8
Codec ID: S_TEXT/UTF8
Codec ID/Info: UTF-8 Plain Text
Duration: 53 min 50 s
Bit rate: 80 b/s
Frame rate: 0.297 FPS
Count of elements: 958
Stream size: 31.6 KiB (0%)
Title: SDH
Language: English (US)
Default: No
Forced: No

Text #3
ID: 5
Format: UTF-8
Codec ID: S_TEXT/UTF8
Codec ID/Info: UTF-8 Plain Text
Duration: 53 min 58 s
Bit rate: 74 b/s
Frame rate: 0.191 FPS
Count of elements: 620
Stream size: 29.5 KiB (0%)
Language: Bulgarian (BG)
Default: No
Forced: No

Text #4
ID: 6
Format: UTF-8
Codec ID: S_TEXT/UTF8
Codec ID/Info: UTF-8 Plain Text
Duration: 53 min 58 s
Bit rate: 44 b/s
Frame rate: 0.191 FPS
Count of elements: 619
Stream size: 17.8 KiB (0%)
Language: Czech (CZ)
Default: No
Forced: No

Text #5
ID: 7
Format: UTF-8
Codec ID: S_TEXT/UTF8
Codec ID/Info: UTF-8 Plain Text
Duration: 54 min 4 s
Bit rate: 48 b/s
Frame rate: 0.197 FPS
Count of elements: 639
Stream size: 19.4 KiB (0%)
Language: Danish (DK)
Default: No
Forced: No

Text #6
ID: 8
Format: UTF-8
Codec ID: S_TEXT/UTF8
Codec ID/Info: UTF-8 Plain Text
Duration: 53 min 58 s
Bit rate: 46 b/s
Frame rate: 0.192 FPS
Count of elements: 621
Stream size: 18.3 KiB (0%)
Title: Spanish (Latin America)
Language: Spanish (Latin America)
Default: No
Forced: No

Text #7
ID: 9
Format: UTF-8
Codec ID: S_TEXT/UTF8
Codec ID/Info: UTF-8 Plain Text
Duration: 51 min 38 s
Bit rate: 52 b/s
Frame rate: 0.181 FPS
Count of elements: 562
Stream size: 19.8 KiB (0%)
Title: Spanish (Spain)
Language: Spanish (ES)
Default: No
Forced: No

Text #8
ID: 10
Format: UTF-8
Codec ID: S_TEXT/UTF8
Codec ID/Info: UTF-8 Plain Text
Duration: 52 min 31 s
Bit rate: 42 b/s
Frame rate: 0.194 FPS
Count of elements: 610
Stream size: 16.4 KiB (0%)
Language: Finnish (FI)
Default: No
Forced: No

Text #9
ID: 11
Format: UTF-8
Codec ID: S_TEXT/UTF8
Codec ID/Info: UTF-8 Plain Text
Duration: 53 min 58 s
Bit rate: 42 b/s
Frame rate: 0.191 FPS
Count of elements: 619
Stream size: 16.6 KiB (0%)
Language: Croatian (HR)
Default: No
Forced: No

Text #10
ID: 12
Format: UTF-8
Codec ID: S_TEXT/UTF8
Codec ID/Info: UTF-8 Plain Text
Duration: 53 min 58 s
Bit rate: 46 b/s
Frame rate: 0.191 FPS
Count of elements: 619
Stream size: 18.5 KiB (0%)
Language: Hungarian (HU)
Default: No
Forced: No

Text #11
ID: 13
Format: UTF-8
Codec ID: S_TEXT/UTF8
Codec ID/Info: UTF-8 Plain Text
Duration: 53 min 58 s
Bit rate: 85 b/s
Frame rate: 0.192 FPS
Count of elements: 621
Stream size: 33.8 KiB (0%)
Language: Macedonian (MK)
Default: No
Forced: No

Text #12
ID: 14
Format: UTF-8
Codec ID: S_TEXT/UTF8
Codec ID/Info: UTF-8 Plain Text
Duration: 53 min 58 s
Bit rate: 45 b/s
Frame rate: 0.183 FPS
Count of elements: 592
Stream size: 18.1 KiB (0%)
Language: Dutch (NL)
Default: No
Forced: No

Text #13
ID: 15
Format: UTF-8
Codec ID: S_TEXT/UTF8
Codec ID/Info: UTF-8 Plain Text
Duration: 53 min 58 s
Bit rate: 44 b/s
Frame rate: 0.191 FPS
Count of elements: 617
Stream size: 17.8 KiB (0%)
Language: Norwegian (NO)
Default: No
Forced: No

Text #14
ID: 16
Format: UTF-8
Codec ID: S_TEXT/UTF8
Codec ID/Info: UTF-8 Plain Text
Duration: 53 min 58 s
Bit rate: 39 b/s
Frame rate: 0.190 FPS
Count of elements: 614
Stream size: 15.6 KiB (0%)
Language: Polish (PL)
Default: No
Forced: No

Text #15
ID: 17
Format: UTF-8
Codec ID: S_TEXT/UTF8
Codec ID/Info: UTF-8 Plain Text
Duration: 53 min 58 s
Bit rate: 46 b/s
Frame rate: 0.195 FPS
Count of elements: 632
Stream size: 18.2 KiB (0%)
Title: Portuguese (Brazil)
Language: Portuguese (BR)
Default: No
Forced: No

Text #16
ID: 18
Format: UTF-8
Codec ID: S_TEXT/UTF8
Codec ID/Info: UTF-8 Plain Text
Duration: 53 min 58 s
Bit rate: 50 b/s
Frame rate: 0.191 FPS
Count of elements: 619
Stream size: 19.8 KiB (0%)
Title: Portuguese (Portugal)
Language: Portuguese (PT)
Default: No
Forced: No

Text #17
ID: 19
Format: UTF-8
Codec ID: S_TEXT/UTF8
Codec ID/Info: UTF-8 Plain Text
Duration: 54 min 4 s
Bit rate: 51 b/s
Frame rate: 0.192 FPS
Count of elements: 622
Stream size: 20.5 KiB (0%)
Language: Romanian (RO)
Default: No
Forced: No

Text #18
ID: 20
Format: UTF-8
Codec ID: S_TEXT/UTF8
Codec ID/Info: UTF-8 Plain Text
Duration: 53 min 58 s
Bit rate: 43 b/s
Frame rate: 0.191 FPS
Count of elements: 618
Stream size: 17.1 KiB (0%)
Language: Slovenian (SI)
Default: No
Forced: No

Text #19
ID: 21
Format: UTF-8
Codec ID: S_TEXT/UTF8
Codec ID/Info: UTF-8 Plain Text
Duration: 53 min 5 s
Bit rate: 47 b/s
Frame rate: 0.195 FPS
Count of elements: 622
Stream size: 18.3 KiB (0%)
Language: Serbian-Latn-RS
Default: No
Forced: No

Text #20
ID: 22
Format: UTF-8
Codec ID: S_TEXT/UTF8
Codec ID/Info: UTF-8 Plain Text
Duration: 53 min 58 s
Bit rate: 50 b/s
Frame rate: 0.190 FPS
Count of elements: 614
Stream size: 19.8 KiB (0%)
Language: Swedish (SE)
Default: No
Forced: No

Menu
00:00:00.000: Chapter 1
00:00:06.006: Intro
00:01:35.096: Chapter 2
00:12:39.925: Chapter 3
00:26:06.356: Chapter 4
00:36:23.347: Chapter 5
00:43:15.551: Chapter 6
00:53:16.000: Credits
ssl  EZTV RSS EZTV Status | EZTV API | DMCA: [email protected]