eztvx.to | eztvstatus.org
Search title:  
TV Packs only
 

Love and Death S01E01 The Huntress 1080p HMAX WEBRip DDP5 1 x264-NTb EZTV

Episode Breakdown
Love & Death
Love & Death TV Show S01E01

Season: 1
Episode: 1
Air Date: 27 April, 2023
Download Links
     Torrent Download     Magnet Download
     Anonymous Download
Added 1 year ago by eztv (verified).
Tracker Statistics
Seeds: 0
Peers: 0
Stats generated @ 19:22 on 23rd Jun 2024
Torrent Info
Torrent File: Love.and.Death.S01E01.The.Huntress.1080p.HMAX.WEB-DL.DDP5.1.H.264-NTb[eztv.re].mkv
Torrent Hash: F2D87523BAA799D0B7A8C1D173B19DCA3636B52D
Filesize: 3.50 GB
Released: 27th Apr 2023

File Format: MKV (Matroska)
Resolution: 1920x1080 px
Aspect Ratio: 16:9
Alternate Releases S L
Love and Death S01E01 720p WEB H264-CAKES 0 3
Love and Death S01E01 1080p WEB H264-CAKES 1 0
Love and Death S01E01 720p HEVC x265-MeGusta 0 0
Love and Death S01E01 480p x264-mSD 3 0
Love and Death S01E01 The Huntress 1080p AMZN WEBRip DDP5 1 x264-NTb 0 1
Love and Death S01E01 XviD-AFG 1 1
Love and Death S01E01 1080p HEVC x265-MeGusta 3 1

Love & Death S01E01 - The Huntress

Summary:

After a surprisingly charged moment at a church volleyball match, Candy proposes that she and Allan have an affair. Though he initially refuses, the pair soon begin strategizing their secret arrangement.



Love and Death S01E01 The Huntress 1080p HMAX WEBRip DDP5 1 x264-NTb EZTV
Love & Death S1E1 Screenshot


General
Unique ID: 36551542193977959348423035094957887924 (0x1B7F922A990C868888A30C29D0CD11B4)
Complete name: Love.and.Death.S01E01.The.Huntress.1080p.HMAX.WEB-DL.DDP5.1.H.264-NTb.mkv
Format: Matroska
Format version: Version 4
File size: 3.50 GiB
Duration: 56 min 34 s
Overall bit rate mode: Variable
Overall bit rate: 8 869 kb/s
Writing application: mkvmerge v75.0.0 ('Goliath') 64-bit
Writing library: libebml v1.4.4 + libmatroska v1.7.1

Video
ID: 1
Format: AVC
Format/Info: Advanced Video Codec
Format profile: High@L4
Format settings: CABAC / 4 Ref Frames
Format settings, CABAC: Yes
Format settings, Reference frames: 4 frames
Codec ID: V_MPEG4/ISO/AVC
Duration: 56 min 34 s
Bit rate mode: Variable
Bit rate: 8 250 kb/s
Maximum bit rate: 12.4 Mb/s
Width: 1 920 pixels
Height: 1 080 pixels
Display aspect ratio: 16:9
Frame rate mode: Constant
Frame rate: 23.976 (24000/1001) FPS
Color space: YUV
Chroma subsampling: 4:2:0
Bit depth: 8 bits
Scan type: Progressive
Bits/(Pixel*Frame): 0.166
Stream size: 3.25 GiB (93%)
Writing library: x264 core 157 r2965 861cec4
Encoding settings: cabac=1 / ref=4 / deblock=1:0:0 / analyse=0x3:0x113 / me=hex / subme=7 / psy=1 / psy_rd=1.00:0.00 / mixed_ref=1 / me_range=16 / chroma_me=1 / trellis=1 / 8x8dct=1 / cqm=0 / deadzone=21,11 / fast_pskip=1 / chroma_qp_offset=-2 / threads=34 / lookahead_threads=5 / sliced_threads=0 / nr=0 / decimate=1 / interlaced=0 / bluray_compat=0 / constrained_intra=0 / bframes=3 / b_pyramid=2 / b_adapt=1 / b_bias=0 / direct=1 / weightb=1 / open_gop=0 / weightp=2 / keyint=96 / keyint_min=96 / scenecut=40 / intra_refresh=0 / rc_lookahead=40 / rc=2pass / mbtree=1 / bitrate=8250 / ratetol=1.0 / qcomp=0.60 / qpmin=0 / qpmax=69 / qpstep=4 / cplxblur=20.0 / qblur=0.5 / vbv_maxrate=12375 / vbv_bufsize=6187 / nal_hrd=vbr / filler=0 / ip_ratio=1.40 / aq=1:1.00
Default: Yes
Forced: No
Color range: Limited
Color primaries: BT.709
Transfer characteristics: BT.709
Matrix coefficients: BT.709

Audio
ID: 2
Format: E-AC-3
Format/Info: Enhanced AC-3
Commercial name: Dolby Digital Plus
Codec ID: A_EAC3
Duration: 56 min 34 s
Bit rate mode: Constant
Bit rate: 640 kb/s
Channel(s): 6 channels
Channel layout: L R C LFE Ls Rs
Sampling rate: 48.0 kHz
Frame rate: 31.250 FPS (1536 SPF)
Compression mode: Lossy
Stream size: 259 MiB (7%)
Language: English
Service kind: Complete Main
Default: Yes
Forced: No

Text #1
ID: 3
Format: UTF-8
Codec ID: S_TEXT/UTF8
Codec ID/Info: UTF-8 Plain Text
Duration: 51 min 28 s
Bit rate: 53 b/s
Frame rate: 0.187 FPS
Count of elements: 577
Stream size: 20.2 KiB (0%)
Language: English (US)
Default: No
Forced: No

Text #2
ID: 4
Format: UTF-8
Codec ID: S_TEXT/UTF8
Codec ID/Info: UTF-8 Plain Text
Duration: 55 min 24 s
Bit rate: 78 b/s
Frame rate: 0.286 FPS
Count of elements: 951
Stream size: 31.8 KiB (0%)
Title: SDH
Language: English (US)
Default: No
Forced: No

Text #3
ID: 5
Format: UTF-8
Codec ID: S_TEXT/UTF8
Codec ID/Info: UTF-8 Plain Text
Duration: 56 min 14 s
Bit rate: 47 b/s
Frame rate: 0.192 FPS
Count of elements: 648
Stream size: 19.4 KiB (0%)
Language: Spanish (Latin America)
Default: No
Forced: No

Text #4
ID: 6
Format: UTF-8
Codec ID: S_TEXT/UTF8
Codec ID/Info: UTF-8 Plain Text
Duration: 56 min 14 s
Bit rate: 48 b/s
Frame rate: 0.192 FPS
Count of elements: 649
Stream size: 19.8 KiB (0%)
Language: Portuguese (BR)
Default: No
Forced: No

Menu
00:00:00.000: Chapter 1
00:00:05.047: Intro
00:01:43.104: Chapter 2
00:11:48.207: Chapter 3
00:22:39.066: Chapter 4
00:35:29.127: Chapter 5
00:46:45.844: Chapter 6
00:55:27.000: Credits
ssl  EZTV RSS EZTV Status | EZTV API | DMCA: [email protected]