eztvx.to | eztvstatus.org
Search title:  
TV Packs only
 

Love and Death S01E02 Encounters 1080p AMZN WEBRip DDP5 1 x264-NTb EZTV

Episode Breakdown
Love & Death
Love & Death TV Show S01E02

Season: 1
Episode: 2
Air Date: 27 April, 2023
Download Links
     Torrent Download     Magnet Download
     Anonymous Download
Added 1 year ago by eztv (verified).
Tracker Statistics
Seeds: 1
Peers: 0
Stats generated @ 13:54 on 27th May 2024
Torrent Info
Torrent File: Love.and.Death.S01E02.Encounters.1080p.AMZN.WEB-DL.DDP5.1.H.264-NTb[eztv.re].mkv
Torrent Hash: 906950D9F06B9CE4CED866EA96ADE0B33C432C4E
Filesize: 3.14 GB
Released: 27th Apr 2023

File Format: MKV (Matroska)
Resolution: 1920x1080 px
Aspect Ratio: 16:9
Alternate Releases S L
Love and Death S01E02 480p x264-mSD 5 0
Love and Death S01E02 720p WEB H264-CAKES 6 0
Love and Death S01E02 720p HEVC x265-MeGusta 1 0
Love and Death S01E02 Encounters 1080p HMAX WEBRip DDP5 1 x264-NTb 2 1
Love and Death S01E02 XviD-AFG 1 0
Love and Death S01E02 1080p HEVC x265-MeGusta 6 1
Love and Death S01E02 MULTi 1080p WEB H264-AMB3R 5 3

Love & Death S01E02 - Encounters

Summary:

As their affair continues, Candy fears that she and Allan are at risk of breaking their first rule – no feelings. Later, Candy bristles at news that Allan and Betty have signed up for a Christian marriage retreat.



Love and Death S01E02 Encounters 1080p AMZN WEBRip DDP5 1 x264-NTb EZTV
Love & Death S1E2 Screenshot


General
Unique ID: 300395377050578229123146176323138341328 (0xE1FE0B91077B02ED3B33867A0B67C9D0)
Complete name: Love.and.Death.S01E02.Encounters.1080p.AMZN.WEB-DL.DDP5.1.H.264-NTb.mkv
Format: Matroska
Format version: Version 4
File size: 3.14 GiB
Duration: 54 min 16 s
Overall bit rate: 8 283 kb/s
Writing application: mkvmerge v75.0.0 ('Goliath') 64-bit
Writing library: libebml v1.4.4 + libmatroska v1.7.1

Video
ID: 1
Format: AVC
Format/Info: Advanced Video Codec
Format profile: High@L4
Format settings: CABAC / 4 Ref Frames
Format settings, CABAC: Yes
Format settings, Reference frames: 4 frames
Codec ID: V_MPEG4/ISO/AVC
Duration: 54 min 16 s
Bit rate mode: Constant
Bit rate: 7 638 kb/s
Nominal bit rate: 10 000 kb/s
Width: 1 920 pixels
Height: 960 pixels
Display aspect ratio: 2.000
Frame rate mode: Constant
Frame rate: 24.000 FPS
Color space: YUV
Chroma subsampling: 4:2:0
Bit depth: 8 bits
Scan type: Progressive
Bits/(Pixel*Frame): 0.173
Stream size: 2.90 GiB (92%)
Default: Yes
Forced: No
Color range: Limited
Color primaries: BT.709
Transfer characteristics: BT.709
Matrix coefficients: BT.709

Audio
ID: 2
Format: E-AC-3
Format/Info: Enhanced AC-3
Commercial name: Dolby Digital Plus
Codec ID: A_EAC3
Duration: 54 min 16 s
Bit rate mode: Constant
Bit rate: 640 kb/s
Channel(s): 6 channels
Channel layout: L R C LFE Ls Rs
Sampling rate: 48.0 kHz
Frame rate: 31.250 FPS (1536 SPF)
Compression mode: Lossy
Stream size: 248 MiB (8%)
Language: English
Service kind: Complete Main
Default: Yes
Forced: No

Text #1
ID: 3
Format: UTF-8
Codec ID: S_TEXT/UTF8
Codec ID/Info: UTF-8 Plain Text
Duration: 49 min 37 s
Bit rate: 55 b/s
Frame rate: 0.209 FPS
Count of elements: 621
Stream size: 20.0 KiB (0%)
Language: English (US)
Default: No
Forced: No

Text #2
ID: 4
Format: UTF-8
Codec ID: S_TEXT/UTF8
Codec ID/Info: UTF-8 Plain Text
Duration: 53 min 50 s
Bit rate: 79 b/s
Frame rate: 0.297 FPS
Count of elements: 958
Stream size: 31.5 KiB (0%)
Title: SDH
Language: English (US)
Default: No
Forced: No

Text #3
ID: 5
Format: UTF-8
Codec ID: S_TEXT/UTF8
Codec ID/Info: UTF-8 Plain Text
Duration: 53 min 58 s
Bit rate: 74 b/s
Frame rate: 0.191 FPS
Count of elements: 620
Stream size: 29.4 KiB (0%)
Language: Bulgarian (BG)
Default: No
Forced: No

Text #4
ID: 6
Format: UTF-8
Codec ID: S_TEXT/UTF8
Codec ID/Info: UTF-8 Plain Text
Duration: 53 min 58 s
Bit rate: 44 b/s
Frame rate: 0.191 FPS
Count of elements: 619
Stream size: 17.8 KiB (0%)
Language: Czech (CZ)
Default: No
Forced: No

Text #5
ID: 7
Format: UTF-8
Codec ID: S_TEXT/UTF8
Codec ID/Info: UTF-8 Plain Text
Duration: 54 min 4 s
Bit rate: 48 b/s
Frame rate: 0.197 FPS
Count of elements: 639
Stream size: 19.4 KiB (0%)
Language: Danish (DK)
Default: No
Forced: No

Text #6
ID: 8
Format: UTF-8
Codec ID: S_TEXT/UTF8
Codec ID/Info: UTF-8 Plain Text
Duration: 53 min 58 s
Bit rate: 46 b/s
Frame rate: 0.192 FPS
Count of elements: 621
Stream size: 18.3 KiB (0%)
Title: Spanish (Latin America)
Language: Spanish (Latin America)
Default: No
Forced: No

Text #7
ID: 9
Format: UTF-8
Codec ID: S_TEXT/UTF8
Codec ID/Info: UTF-8 Plain Text
Duration: 51 min 38 s
Bit rate: 52 b/s
Frame rate: 0.181 FPS
Count of elements: 562
Stream size: 19.8 KiB (0%)
Title: Spanish (Spain)
Language: Spanish (ES)
Default: No
Forced: No

Text #8
ID: 10
Format: UTF-8
Codec ID: S_TEXT/UTF8
Codec ID/Info: UTF-8 Plain Text
Duration: 52 min 31 s
Bit rate: 42 b/s
Frame rate: 0.194 FPS
Count of elements: 610
Stream size: 16.4 KiB (0%)
Language: Finnish (FI)
Default: No
Forced: No

Text #9
ID: 11
Format: UTF-8
Codec ID: S_TEXT/UTF8
Codec ID/Info: UTF-8 Plain Text
Duration: 53 min 58 s
Bit rate: 42 b/s
Frame rate: 0.191 FPS
Count of elements: 619
Stream size: 16.6 KiB (0%)
Language: Croatian (HR)
Default: No
Forced: No

Text #10
ID: 12
Format: UTF-8
Codec ID: S_TEXT/UTF8
Codec ID/Info: UTF-8 Plain Text
Duration: 53 min 58 s
Bit rate: 46 b/s
Frame rate: 0.191 FPS
Count of elements: 619
Stream size: 18.4 KiB (0%)
Language: Hungarian (HU)
Default: No
Forced: No

Text #11
ID: 13
Format: UTF-8
Codec ID: S_TEXT/UTF8
Codec ID/Info: UTF-8 Plain Text
Duration: 53 min 58 s
Bit rate: 85 b/s
Frame rate: 0.192 FPS
Count of elements: 621
Stream size: 33.8 KiB (0%)
Language: Macedonian (MK)
Default: No
Forced: No

Text #12
ID: 14
Format: UTF-8
Codec ID: S_TEXT/UTF8
Codec ID/Info: UTF-8 Plain Text
Duration: 53 min 58 s
Bit rate: 45 b/s
Frame rate: 0.183 FPS
Count of elements: 592
Stream size: 18.1 KiB (0%)
Language: Dutch (NL)
Default: No
Forced: No

Text #13
ID: 15
Format: UTF-8
Codec ID: S_TEXT/UTF8
Codec ID/Info: UTF-8 Plain Text
Duration: 53 min 58 s
Bit rate: 44 b/s
Frame rate: 0.191 FPS
Count of elements: 617
Stream size: 17.8 KiB (0%)
Language: Norwegian (NO)
Default: No
Forced: No

Text #14
ID: 16
Format: UTF-8
Codec ID: S_TEXT/UTF8
Codec ID/Info: UTF-8 Plain Text
Duration: 53 min 58 s
Bit rate: 39 b/s
Frame rate: 0.190 FPS
Count of elements: 614
Stream size: 15.6 KiB (0%)
Language: Polish (PL)
Default: No
Forced: No

Text #15
ID: 17
Format: UTF-8
Codec ID: S_TEXT/UTF8
Codec ID/Info: UTF-8 Plain Text
Duration: 53 min 58 s
Bit rate: 46 b/s
Frame rate: 0.195 FPS
Count of elements: 632
Stream size: 18.2 KiB (0%)
Title: Portuguese (Brazil)
Language: Portuguese (BR)
Default: No
Forced: No

Text #16
ID: 18
Format: UTF-8
Codec ID: S_TEXT/UTF8
Codec ID/Info: UTF-8 Plain Text
Duration: 53 min 58 s
Bit rate: 50 b/s
Frame rate: 0.191 FPS
Count of elements: 619
Stream size: 19.8 KiB (0%)
Title: Portuguese (Portugal)
Language: Portuguese (PT)
Default: No
Forced: No

Text #17
ID: 19
Format: UTF-8
Codec ID: S_TEXT/UTF8
Codec ID/Info: UTF-8 Plain Text
Duration: 54 min 4 s
Bit rate: 51 b/s
Frame rate: 0.192 FPS
Count of elements: 622
Stream size: 20.5 KiB (0%)
Language: Romanian (RO)
Default: No
Forced: No

Text #18
ID: 20
Format: UTF-8
Codec ID: S_TEXT/UTF8
Codec ID/Info: UTF-8 Plain Text
Duration: 53 min 58 s
Bit rate: 43 b/s
Frame rate: 0.191 FPS
Count of elements: 618
Stream size: 17.1 KiB (0%)
Language: Slovenian (SI)
Default: No
Forced: No

Text #19
ID: 21
Format: UTF-8
Codec ID: S_TEXT/UTF8
Codec ID/Info: UTF-8 Plain Text
Duration: 53 min 5 s
Bit rate: 46 b/s
Frame rate: 0.195 FPS
Count of elements: 622
Stream size: 18.3 KiB (0%)
Language: Serbian-Latn-RS
Default: No
Forced: No

Text #20
ID: 22
Format: UTF-8
Codec ID: S_TEXT/UTF8
Codec ID/Info: UTF-8 Plain Text
Duration: 53 min 58 s
Bit rate: 50 b/s
Frame rate: 0.190 FPS
Count of elements: 614
Stream size: 19.8 KiB (0%)
Language: Swedish (SE)
Default: No
Forced: No

Menu
00:00:00.000: en:Chapter 1
00:00:05.031: en:Intro
00:01:34.121: en:Chapter 2
00:12:38.950: en:Chapter 3
00:26:05.381: en:Chapter 4
00:36:22.372: en:Chapter 5
00:43:14.576: en:Chapter 6
00:53:15.025: en:Credits
ssl  EZTV RSS EZTV Status | EZTV API | DMCA: [email protected]