eztvx.to | eztvstatus.org
Search title:  
TV Packs only
 

BMF S02E10 New Beginnings 720p AMZN WEBRip DDP5 1 x264-NTb EZTV

Episode Breakdown
Black Mafia Family
Black Mafia Family TV Show S02E10

Season: 2
Episode: 10
Air Date: 17 March, 2023
Download Links
     Torrent Download     Magnet Download
     Anonymous Download
Added 1 year ago by eztv (verified).
Tracker Statistics
Seeds: 0
Peers: 2
Stats generated @ 16:16 on 21st Jun 2024
Torrent Info
Torrent File: BMF.S02E10.New.Beginnings.720p.AMZN.WEB-DL.DDP5.1.H.264-NTb[eztv.re].mkv
Torrent Hash: E4A17F8FC64D1A2C231B128F88138D973EBA94A2
Filesize: 2.30 GB
Released: 17th Mar 2023

File Format: MKV (Matroska)
Resolution: 1280x720 px
Aspect Ratio: 16:9
Alternate Releases S L
BMF S02E10 New Beginnings 1080p AMZN WEBRip DDP5 1 x264-NTb 0 0
BMF S02E10 1080p HEVC x265-MeGusta 2 0
BMF S02E10 XviD-AFG 0 0
BMF S02E10 WEBRip x264-LAMA 0 0

Black Mafia Family S02E10 - New Beginnings

Summary:

Meech and Terry finally handle Detective Bryant, Lamar and B-Mickie before charting the next big step for BMF's expansion, which will change the course of their relationship forever.



BMF S02E10 New Beginnings 720p AMZN WEBRip DDP5 1 x264-NTb EZTV
Black Mafia Family S2E10 Screenshot
General
Unique ID: 323128844543027139122381214838370444940 (0xF3185A0CF29D3E2BA389F9A8E9B5A68C)
Complete name: BMF.S02E10.New.Beginnings.720p.AMZN.WEB-DL.DDP5.1.H.264-NTb.mkv
Format: Matroska
Format version: Version 4
File size: 2.30 GiB
Duration: 51 min 27 s
Overall bit rate: 6 399 kb/s
Writing application: mkvmerge v74.0.0 ('You Oughta Know') 64-bit
Writing library: libebml v1.4.4 + libmatroska v1.7.1

Video
ID: 1
Format: AVC
Format/Info: Advanced Video Codec
Format profile: [email protected]
Format settings: CABAC / 4 Ref Frames
Format settings, CABAC: Yes
Format settings, Reference frames: 4 frames
Codec ID: V_MPEG4/ISO/AVC
Duration: 51 min 27 s
Bit rate mode: Constant
Bit rate: 6 000 kb/s
Width: 1 280 pixels
Height: 720 pixels
Display aspect ratio: 16:9
Frame rate mode: Constant
Frame rate: 23.976 (24000/1001) FPS
Color space: YUV
Chroma subsampling: 4:2:0
Bit depth: 8 bits
Scan type: Progressive
Bits/(Pixel*Frame): 0.272
Stream size: 2.07 GiB (90%)
Default: Yes
Forced: No
Color range: Limited
Color primaries: BT.709
Transfer characteristics: BT.709
Matrix coefficients: BT.709

Audio
ID: 2
Format: E-AC-3
Format/Info: Enhanced AC-3
Commercial name: Dolby Digital Plus
Codec ID: A_EAC3
Duration: 51 min 27 s
Bit rate mode: Constant
Bit rate: 640 kb/s
Channel(s): 6 channels
Channel layout: L R C LFE Ls Rs
Sampling rate: 48.0 kHz
Frame rate: 31.250 FPS (1536 SPF)
Compression mode: Lossy
Stream size: 236 MiB (10%)
Language: English (US)
Service kind: Complete Main
Default: Yes
Forced: No

Text #1
ID: 3
Format: UTF-8
Codec ID: S_TEXT/UTF8
Codec ID/Info: UTF-8 Plain Text
Duration: 51 min 6 s
Bit rate: 85 b/s
Frame rate: 0.310 FPS
Count of elements: 952
Stream size: 32.0 KiB (0%)
Language: English (US)
Default: No
Forced: No

Text #2
ID: 4
Format: UTF-8
Codec ID: S_TEXT/UTF8
Codec ID/Info: UTF-8 Plain Text
Duration: 51 min 8 s
Bit rate: 98 b/s
Frame rate: 0.375 FPS
Count of elements: 1150
Stream size: 36.8 KiB (0%)
Title: SDH
Language: English (US)
Default: No
Forced: No

Menu
00:00:00.000: en:Scene 1
00:00:12.000: en:Scene 2
00:00:48.000: en:Scene 3
00:01:11.000: en:Scene 4
00:02:21.000: en:Scene 5
00:03:00.000: en:Scene 6
00:04:15.000: en:Scene 7
00:05:55.000: en:Scene 8
00:06:38.000: en:Scene 9
00:07:28.000: en:Scene 10
00:08:22.000: en:Scene 11
00:08:41.000: en:Scene 12
00:10:04.000: en:Scene 13
00:11:05.000: en:Scene 14
00:11:40.000: en:Scene 15
00:12:57.000: en:Scene 16
00:13:13.000: en:Scene 17
00:14:11.000: en:Scene 18
00:15:14.000: en:Scene 19
00:15:45.000: en:Scene 20
00:16:32.000: en:Scene 21
00:16:57.000: en:Scene 22
00:17:38.000: en:Scene 23
00:19:02.000: en:Scene 24
00:19:41.000: en:Scene 25
00:20:25.000: en:Scene 26
00:22:40.000: en:Scene 27
00:22:56.000: en:Scene 28
00:23:34.000: en:Scene 29
00:24:52.000: en:Scene 30
00:25:36.000: en:Scene 31
00:27:03.000: en:Scene 32
00:29:34.000: en:Scene 33
00:30:33.000: en:Scene 34
00:31:17.000: en:Scene 35
00:32:26.000: en:Scene 36
00:33:16.000: en:Scene 37
00:33:38.000: en:Scene 38
00:36:02.000: en:Scene 39
00:37:46.000: en:Scene 40
00:38:01.000: en:Scene 41
00:38:51.000: en:Scene 42
00:39:34.000: en:Scene 43
00:40:59.000: en:Scene 44
00:41:54.000: en:Scene 45
00:43:00.000: en:Scene 46
00:44:11.000: en:Scene 47
00:45:25.000: en:Scene 48
00:46:51.000: en:Scene 49
00:47:48.000: en:Scene 50
00:48:39.000: en:Scene 51
00:48:55.000: en:Scene 52
00:49:24.000: en:Scene 53
00:50:05.000: en:Scene 54
ssl  EZTV RSS EZTV Status | EZTV API | DMCA: [email protected]