eztvx.to | eztvstatus.org
Search title:  
TV Packs only
 

The Simpsons S34E16 Hostile Kirk Place 1080p DSNP WEBRip DDP5 1 x264-NTb EZTV

Episode Breakdown
The Simpsons
The Simpsons TV Show S34E16

Season: 34
Episode: 16
Air Date: 12 March, 2023
Download Links
     Torrent Download     Magnet Download
     Anonymous Download
Added 1 year ago by eztv (verified).
Tracker Statistics
Seeds: 1
Peers: 0
Stats generated @ 14:00 on 19th Apr 2024
Torrent Info
Torrent File: The.Simpsons.S34E16.Hostile.Kirk.Place.1080p.DSNP.WEB-DL.DD+5.1.H.264-NTb[eztv.re].mkv
Torrent Hash: 3B23F6286CEEA1FD97EF2DCE311ABB6DE107EC2A
Filesize: 740 MB
Released: 27th Mar 2023

File Format: MKV (Matroska)
Resolution: 1920x1080 px
Aspect Ratio: 16:9
Alternate Releases S L
The Simpsons S34E16 1080p WEB H264-CAKES 14 0
The Simpsons S34E16 720p WEB H264-CAKES 1 0
The Simpsons S34E16 480p x264-mSD 6 0
The Simpsons S34E16 720p HEVC x265-MeGusta 1 1
The Simpsons S34E16 1080p HEVC x265-MeGusta 6 0
The Simpsons S34E16 XviD-AFG 1 0
The Simpsons S34E16 Hostile Kirk Place 1080p HULU WEBRip DDP5 1 x264-NTb 1 0

The Simpsons S34E16 - Hostile Kirk Place

Summary:

By fanning the flames of hate and division instead of embracing historical fact, nobody Kirk Van Houten rises from obscurity to become arbiter of Springfield Elementary's curriculum--leading to a fascist, dystopian future where Kirk is Springfield's dictator.



The Simpsons S34E16 Hostile Kirk Place 1080p DSNP WEBRip DDP5 1 x264-NTb EZTV
The Simpsons S34E16 Screenshot
General
Unique ID: 229403261700255387850668840096091988775 (0xAC95760AF7DFC3C3AEA376466801E327)
Complete name: The.Simpsons.S34E16.Hostile.Kirk.Place.1080p.DSNP.WEB-DL.DD+5.1.H.264-NTb.mkv
Format: Matroska
Format version: Version 4
File size: 740 MiB
Duration: 21 min 39 s
Overall bit rate mode: Variable
Overall bit rate: 4 776 kb/s
Writing application: mkvmerge v74.0.0 ('You Oughta Know') 64-bit
Writing library: libebml v1.4.4 + libmatroska v1.7.1

Video
ID: 1
Format: AVC
Format/Info: Advanced Video Codec
Format profile: High@L4
Format settings: CABAC / 4 Ref Frames
Format settings, CABAC: Yes
Format settings, Reference frames: 4 frames
Codec ID: V_MPEG4/ISO/AVC
Duration: 21 min 39 s
Bit rate mode: Variable
Bit rate: 4 513 kb/s
Maximum bit rate: 12.7 Mb/s
Width: 1 920 pixels
Height: 1 080 pixels
Display aspect ratio: 16:9
Frame rate mode: Constant
Frame rate: 23.976 (24000/1001) FPS
Color space: YUV
Chroma subsampling: 4:2:0
Bit depth: 8 bits
Scan type: Progressive
Bits/(Pixel*Frame): 0.091
Stream size: 699 MiB (95%)
Default: Yes
Forced: No
Color range: Limited
Color primaries: BT.709
Transfer characteristics: BT.709
Matrix coefficients: BT.709

Audio
ID: 2
Format: E-AC-3
Format/Info: Enhanced AC-3
Commercial name: Dolby Digital Plus
Codec ID: A_EAC3
Duration: 21 min 39 s
Bit rate mode: Constant
Bit rate: 256 kb/s
Channel(s): 6 channels
Channel layout: L R C LFE Ls Rs
Sampling rate: 48.0 kHz
Frame rate: 31.250 FPS (1536 SPF)
Compression mode: Lossy
Stream size: 39.7 MiB (5%)
Language: English
Service kind: Complete Main
Default: Yes
Forced: No

Text #1
ID: 3
Format: UTF-8
Codec ID: S_TEXT/UTF8
Codec ID/Info: UTF-8 Plain Text
Duration: 21 min 9 s
Bit rate: 92 b/s
Frame rate: 0.358 FPS
Count of elements: 455
Stream size: 14.4 KiB (0%)
Language: English
Default: No
Forced: No

Text #2
ID: 4
Format: UTF-8
Codec ID: S_TEXT/UTF8
Codec ID/Info: UTF-8 Plain Text
Duration: 21 min 27 s
Bit rate: 98 b/s
Frame rate: 0.382 FPS
Count of elements: 492
Stream size: 15.4 KiB (0%)
Title: SDH
Language: English
Default: No
Forced: No

Text #3
ID: 5
Format: UTF-8
Codec ID: S_TEXT/UTF8
Codec ID/Info: UTF-8 Plain Text
Duration: 21 min 26 s
Bit rate: 92 b/s
Frame rate: 0.292 FPS
Count of elements: 376
Stream size: 14.5 KiB (0%)
Language: Czech
Default: No
Forced: No

Text #4
ID: 6
Format: UTF-8
Codec ID: S_TEXT/UTF8
Codec ID/Info: UTF-8 Plain Text
Duration: 21 min 7 s
Bit rate: 97 b/s
Frame rate: 0.301 FPS
Count of elements: 382
Stream size: 15.1 KiB (0%)
Language: Danish
Default: No
Forced: No

Text #5
ID: 7
Format: UTF-8
Codec ID: S_TEXT/UTF8
Codec ID/Info: UTF-8 Plain Text
Duration: 21 min 26 s
Bit rate: 100 b/s
Frame rate: 0.292 FPS
Count of elements: 375
Stream size: 15.8 KiB (0%)
Language: German
Default: No
Forced: No

Text #6
ID: 8
Format: UTF-8
Codec ID: S_TEXT/UTF8
Codec ID/Info: UTF-8 Plain Text
Duration: 21 min 7 s
Bit rate: 171 b/s
Frame rate: 0.294 FPS
Count of elements: 372
Stream size: 26.5 KiB (0%)
Language: Greek
Default: No
Forced: No

Text #7
ID: 9
Format: UTF-8
Codec ID: S_TEXT/UTF8
Codec ID/Info: UTF-8 Plain Text
Duration: 21 min 26 s
Bit rate: 96 b/s
Frame rate: 0.288 FPS
Count of elements: 371
Stream size: 15.1 KiB (0%)
Title: Spanish (Latin America)
Language: Spanish (Latin America)
Default: No
Forced: No

Text #8
ID: 10
Format: UTF-8
Codec ID: S_TEXT/UTF8
Codec ID/Info: UTF-8 Plain Text
Duration: 21 min 26 s
Bit rate: 93 b/s
Frame rate: 0.292 FPS
Count of elements: 376
Stream size: 14.7 KiB (0%)
Title: Spanish (Spain)
Language: Spanish (ES)
Default: No
Forced: No

Text #9
ID: 11
Format: UTF-8
Codec ID: S_TEXT/UTF8
Codec ID/Info: UTF-8 Plain Text
Duration: 21 min 7 s
Bit rate: 85 b/s
Frame rate: 0.298 FPS
Count of elements: 378
Stream size: 13.3 KiB (0%)
Language: Finnish
Default: No
Forced: No

Text #10
ID: 12
Format: UTF-8
Codec ID: S_TEXT/UTF8
Codec ID/Info: UTF-8 Plain Text
Duration: 21 min 27 s
Bit rate: 96 b/s
Frame rate: 0.271 FPS
Count of elements: 349
Stream size: 15.1 KiB (0%)
Language: French (FR)
Default: No
Forced: No

Text #11
ID: 13
Format: UTF-8
Codec ID: S_TEXT/UTF8
Codec ID/Info: UTF-8 Plain Text
Duration: 21 min 26 s
Bit rate: 95 b/s
Frame rate: 0.273 FPS
Count of elements: 351
Stream size: 15.1 KiB (0%)
Language: Hungarian
Default: No
Forced: No

Text #12
ID: 14
Format: UTF-8
Codec ID: S_TEXT/UTF8
Codec ID/Info: UTF-8 Plain Text
Duration: 21 min 26 s
Bit rate: 98 b/s
Frame rate: 0.282 FPS
Count of elements: 363
Stream size: 15.5 KiB (0%)
Language: Italian
Default: No
Forced: No

Text #13
ID: 15
Format: UTF-8
Codec ID: S_TEXT/UTF8
Codec ID/Info: UTF-8 Plain Text
Duration: 21 min 26 s
Bit rate: 103 b/s
Frame rate: 0.305 FPS
Count of elements: 392
Stream size: 16.3 KiB (0%)
Language: Korean
Default: No
Forced: No

Text #14
ID: 16
Format: UTF-8
Codec ID: S_TEXT/UTF8
Codec ID/Info: UTF-8 Plain Text
Duration: 21 min 7 s
Bit rate: 91 b/s
Frame rate: 0.294 FPS
Count of elements: 372
Stream size: 14.2 KiB (0%)
Language: Norwegian Bokmal
Default: No
Forced: No

Text #15
ID: 17
Format: UTF-8
Codec ID: S_TEXT/UTF8
Codec ID/Info: UTF-8 Plain Text
Duration: 21 min 26 s
Bit rate: 90 b/s
Frame rate: 0.298 FPS
Count of elements: 383
Stream size: 14.3 KiB (0%)
Language: Polish
Default: No
Forced: No

Text #16
ID: 18
Format: UTF-8
Codec ID: S_TEXT/UTF8
Codec ID/Info: UTF-8 Plain Text
Duration: 21 min 26 s
Bit rate: 98 b/s
Frame rate: 0.299 FPS
Count of elements: 384
Stream size: 15.5 KiB (0%)
Title: Portuguese (Brazil)
Language: Portuguese (BR)
Default: No
Forced: No

Text #17
ID: 19
Format: UTF-8
Codec ID: S_TEXT/UTF8
Codec ID/Info: UTF-8 Plain Text
Duration: 21 min 26 s
Bit rate: 94 b/s
Frame rate: 0.293 FPS
Count of elements: 377
Stream size: 14.9 KiB (0%)
Title: Portuguese (Portugal)
Language: Portuguese (PT)
Default: No
Forced: No

Text #18
ID: 20
Format: UTF-8
Codec ID: S_TEXT/UTF8
Codec ID/Info: UTF-8 Plain Text
Duration: 21 min 7 s
Bit rate: 98 b/s
Frame rate: 0.274 FPS
Count of elements: 347
Stream size: 15.2 KiB (0%)
Language: Romanian
Default: No
Forced: No

Text #19
ID: 21
Format: UTF-8
Codec ID: S_TEXT/UTF8
Codec ID/Info: UTF-8 Plain Text
Duration: 21 min 7 s
Bit rate: 89 b/s
Frame rate: 0.291 FPS
Count of elements: 369
Stream size: 13.9 KiB (0%)
Language: Swedish
Default: No
Forced: No

Text #20
ID: 22
Format: UTF-8
Codec ID: S_TEXT/UTF8
Codec ID/Info: UTF-8 Plain Text
Duration: 21 min 7 s
Bit rate: 105 b/s
Frame rate: 0.305 FPS
Count of elements: 386
Stream size: 16.3 KiB (0%)
Language: Turkish
Default: No
Forced: No

Text #21
ID: 23
Format: UTF-8
Codec ID: S_TEXT/UTF8
Codec ID/Info: UTF-8 Plain Text
Duration: 21 min 26 s
Bit rate: 90 b/s
Frame rate: 0.306 FPS
Count of elements: 394
Stream size: 14.2 KiB (0%)
Title: Chinese (Simplified)
Language: Chinese (Simplied)
Default: No
Forced: No

Text #22
ID: 24
Format: UTF-8
Codec ID: S_TEXT/UTF8
Codec ID/Info: UTF-8 Plain Text
Duration: 21 min 26 s
Bit rate: 84 b/s
Frame rate: 0.306 FPS
Count of elements: 393
Stream size: 13.3 KiB (0%)
Title: Chinese (Traditional)
Language: Chinese (Traditional)
Default: No
Forced: No

Text #23
ID: 25
Format: UTF-8
Codec ID: S_TEXT/UTF8
Codec ID/Info: UTF-8 Plain Text
Duration: 21 min 26 s
Bit rate: 86 b/s
Frame rate: 0.306 FPS
Count of elements: 393
Stream size: 13.5 KiB (0%)
Title: Chinese (Traditional, Hong Kong SAR China)
Language: Chinese-Hant-HK
Default: No
Forced: No
ssl  EZTV RSS EZTV Status | EZTV API | DMCA: [email protected]