eztvx.to | eztvstatus.org
Search title:  
TV Packs only
 

Bobs Burgers S13E15 The Show 1080p DSNP WEBRip DDP5 1 x264-NTb EZTV

Episode Breakdown
Bob's Burgers
Bob's Burgers TV Show S13E15

Season: 13
Episode: 15
Air Date: 12 March, 2023
Download Links
     Torrent Download     Magnet Download
     Anonymous Download
Added 1 year ago by eztv (verified).
Tracker Statistics
Seeds: 1
Peers: 1
Stats generated @ 19:52 on 21st May 2024
Torrent Info
Torrent File: Bob's.Burgers.S13E15.The.Show.(And.Tell).Must.Go.On.1080p.DSNP.WEB-DL.DD+5.1.H.264-NTb[eztv.re].mkv
Torrent Hash: D9A0054B1896F9F5ABBFF6EA1F162DEB2740FB58
Filesize: 543 MB
Released: 27th Mar 2023

File Format: MKV (Matroska)
Resolution: 1920x1080 px
Aspect Ratio: 16:9
Alternate Releases S L
Bobs Burgers S13E15 1080p WEB H264-CAKES 22 1
Bobs Burgers S13E15 480p x264-mSD 3 0
Bobs Burgers S13E15 720p WEB H264-CAKES 2 1
Bobs Burgers S13E15 720p HEVC x265-MeGusta 2 0
Bobs Burgers S13E15 1080p HEVC x265-MeGusta 1 0
Bobs Burgers S13E15 XviD-AFG 0 0
Bobs Burgers S13E15 The Show And Tell Must Go On 1080p HULU WEBRip DDP5 1 x264-NTb 2 1

Bob's Burgers S13E15 - The Show (And Tell) Must Go On

Summary:

Louise brings Tina along on a mission to find the perfect item for her last-ever Show and Tell. Meanwhile, Teddy goes overboard trying to impress a date at the restaurant.



Bobs Burgers S13E15 The Show 1080p DSNP WEBRip DDP5 1 x264-NTb EZTV
Bob's Burgers S13E15 Screenshot
General
Unique ID: 81095118874330077471070632991597052729 (0x3D025A0E25B8F31972121A62EEACC339)
Complete name: Bob's.Burgers.S13E15.The.Show.(And.Tell).Must.Go.On.1080p.DSNP.WEB-DL.DD+5.1.H.264-NTb.mkv
Format: Matroska
Format version: Version 4
File size: 543 MiB
Duration: 21 min 32 s
Overall bit rate mode: Variable
Overall bit rate: 3 526 kb/s
Writing application: mkvmerge v74.0.0 ('You Oughta Know') 64-bit
Writing library: libebml v1.4.4 + libmatroska v1.7.1

Video
ID: 1
Format: AVC
Format/Info: Advanced Video Codec
Format profile: High@L4
Format settings: CABAC / 4 Ref Frames
Format settings, CABAC: Yes
Format settings, Reference frames: 4 frames
Codec ID: V_MPEG4/ISO/AVC
Duration: 21 min 32 s
Bit rate mode: Variable
Bit rate: 3 262 kb/s
Maximum bit rate: 12.7 Mb/s
Width: 1 920 pixels
Height: 1 080 pixels
Display aspect ratio: 16:9
Frame rate mode: Constant
Frame rate: 23.976 (24000/1001) FPS
Color space: YUV
Chroma subsampling: 4:2:0
Bit depth: 8 bits
Scan type: Progressive
Bits/(Pixel*Frame): 0.066
Stream size: 503 MiB (93%)
Default: Yes
Forced: No
Color range: Limited
Color primaries: BT.709
Transfer characteristics: BT.709
Matrix coefficients: BT.709

Audio
ID: 2
Format: E-AC-3
Format/Info: Enhanced AC-3
Commercial name: Dolby Digital Plus
Codec ID: A_EAC3
Duration: 21 min 32 s
Bit rate mode: Constant
Bit rate: 256 kb/s
Channel(s): 6 channels
Channel layout: L R C LFE Ls Rs
Sampling rate: 48.0 kHz
Frame rate: 31.250 FPS (1536 SPF)
Compression mode: Lossy
Stream size: 39.5 MiB (7%)
Language: English
Service kind: Complete Main
Default: Yes
Forced: No

Text #1
ID: 3
Format: UTF-8
Codec ID: S_TEXT/UTF8
Codec ID/Info: UTF-8 Plain Text
Duration: 21 min 8 s
Bit rate: 153 b/s
Frame rate: 0.525 FPS
Count of elements: 666
Stream size: 23.7 KiB (0%)
Language: English
Default: No
Forced: No

Text #2
ID: 4
Format: UTF-8
Codec ID: S_TEXT/UTF8
Codec ID/Info: UTF-8 Plain Text
Duration: 21 min 25 s
Bit rate: 154 b/s
Frame rate: 0.521 FPS
Count of elements: 670
Stream size: 24.2 KiB (0%)
Title: SDH
Language: English
Default: No
Forced: No

Text #3
ID: 5
Format: UTF-8
Codec ID: S_TEXT/UTF8
Codec ID/Info: UTF-8 Plain Text
Duration: 21 min 23 s
Bit rate: 126 b/s
Frame rate: 0.404 FPS
Count of elements: 519
Stream size: 19.8 KiB (0%)
Language: Czech
Default: No
Forced: No

Text #4
ID: 6
Format: UTF-8
Codec ID: S_TEXT/UTF8
Codec ID/Info: UTF-8 Plain Text
Duration: 21 min 23 s
Bit rate: 126 b/s
Frame rate: 0.403 FPS
Count of elements: 517
Stream size: 19.8 KiB (0%)
Language: Danish
Default: No
Forced: No

Text #5
ID: 7
Format: UTF-8
Codec ID: S_TEXT/UTF8
Codec ID/Info: UTF-8 Plain Text
Duration: 21 min 21 s
Bit rate: 125 b/s
Frame rate: 0.359 FPS
Count of elements: 460
Stream size: 19.6 KiB (0%)
Language: German
Default: No
Forced: No

Text #6
ID: 8
Format: UTF-8
Codec ID: S_TEXT/UTF8
Codec ID/Info: UTF-8 Plain Text
Duration: 21 min 23 s
Bit rate: 125 b/s
Frame rate: 0.364 FPS
Count of elements: 467
Stream size: 19.7 KiB (0%)
Title: Spanish (Latin America)
Language: Spanish (Latin America)
Default: No
Forced: No

Text #7
ID: 9
Format: UTF-8
Codec ID: S_TEXT/UTF8
Codec ID/Info: UTF-8 Plain Text
Duration: 21 min 21 s
Bit rate: 118 b/s
Frame rate: 0.377 FPS
Count of elements: 483
Stream size: 18.6 KiB (0%)
Title: Spanish (Spain)
Language: Spanish (ES)
Default: No
Forced: No

Text #8
ID: 10
Format: UTF-8
Codec ID: S_TEXT/UTF8
Codec ID/Info: UTF-8 Plain Text
Duration: 21 min 21 s
Bit rate: 127 b/s
Frame rate: 0.347 FPS
Count of elements: 444
Stream size: 20.0 KiB (0%)
Language: Finnish
Default: No
Forced: No

Text #9
ID: 11
Format: UTF-8
Codec ID: S_TEXT/UTF8
Codec ID/Info: UTF-8 Plain Text
Duration: 21 min 21 s
Bit rate: 130 b/s
Frame rate: 0.397 FPS
Count of elements: 509
Stream size: 20.4 KiB (0%)
Language: French (FR)
Default: No
Forced: No

Text #10
ID: 12
Format: UTF-8
Codec ID: S_TEXT/UTF8
Codec ID/Info: UTF-8 Plain Text
Duration: 21 min 23 s
Bit rate: 129 b/s
Frame rate: 0.371 FPS
Count of elements: 476
Stream size: 20.3 KiB (0%)
Language: Hungarian
Default: No
Forced: No

Text #11
ID: 13
Format: UTF-8
Codec ID: S_TEXT/UTF8
Codec ID/Info: UTF-8 Plain Text
Duration: 21 min 21 s
Bit rate: 135 b/s
Frame rate: 0.390 FPS
Count of elements: 500
Stream size: 21.2 KiB (0%)
Language: Italian
Default: No
Forced: No

Text #12
ID: 14
Format: UTF-8
Codec ID: S_TEXT/UTF8
Codec ID/Info: UTF-8 Plain Text
Duration: 21 min 23 s
Bit rate: 106 b/s
Frame rate: 0.359 FPS
Count of elements: 461
Stream size: 16.6 KiB (0%)
Language: Japanese
Default: No
Forced: No

Text #13
ID: 15
Format: UTF-8
Codec ID: S_TEXT/UTF8
Codec ID/Info: UTF-8 Plain Text
Duration: 21 min 23 s
Bit rate: 141 b/s
Frame rate: 0.416 FPS
Count of elements: 534
Stream size: 22.2 KiB (0%)
Language: Korean
Default: No
Forced: No

Text #14
ID: 16
Format: UTF-8
Codec ID: S_TEXT/UTF8
Codec ID/Info: UTF-8 Plain Text
Duration: 21 min 21 s
Bit rate: 122 b/s
Frame rate: 0.378 FPS
Count of elements: 484
Stream size: 19.2 KiB (0%)
Language: Norwegian Bokmal
Default: No
Forced: No

Text #15
ID: 17
Format: UTF-8
Codec ID: S_TEXT/UTF8
Codec ID/Info: UTF-8 Plain Text
Duration: 21 min 21 s
Bit rate: 113 b/s
Frame rate: 0.354 FPS
Count of elements: 454
Stream size: 17.7 KiB (0%)
Language: Dutch
Default: No
Forced: No

Text #16
ID: 18
Format: UTF-8
Codec ID: S_TEXT/UTF8
Codec ID/Info: UTF-8 Plain Text
Duration: 21 min 21 s
Bit rate: 115 b/s
Frame rate: 0.380 FPS
Count of elements: 487
Stream size: 18.0 KiB (0%)
Language: Polish
Default: No
Forced: No

Text #17
ID: 19
Format: UTF-8
Codec ID: S_TEXT/UTF8
Codec ID/Info: UTF-8 Plain Text
Duration: 21 min 21 s
Bit rate: 114 b/s
Frame rate: 0.407 FPS
Count of elements: 522
Stream size: 18.0 KiB (0%)
Language: Portuguese (BR)
Default: No
Forced: No

Text #18
ID: 20
Format: UTF-8
Codec ID: S_TEXT/UTF8
Codec ID/Info: UTF-8 Plain Text
Duration: 21 min 23 s
Bit rate: 118 b/s
Frame rate: 0.305 FPS
Count of elements: 391
Stream size: 18.6 KiB (0%)
Language: Romanian
Default: No
Forced: No

Text #19
ID: 21
Format: UTF-8
Codec ID: S_TEXT/UTF8
Codec ID/Info: UTF-8 Plain Text
Duration: 21 min 18 s
Bit rate: 133 b/s
Frame rate: 0.413 FPS
Count of elements: 528
Stream size: 20.9 KiB (0%)
Language: Swedish
Default: No
Forced: No

Text #20
ID: 22
Format: UTF-8
Codec ID: S_TEXT/UTF8
Codec ID/Info: UTF-8 Plain Text
Duration: 21 min 21 s
Bit rate: 140 b/s
Frame rate: 0.414 FPS
Count of elements: 531
Stream size: 21.9 KiB (0%)
Language: Turkish
Default: No
Forced: No

Text #21
ID: 23
Format: UTF-8
Codec ID: S_TEXT/UTF8
Codec ID/Info: UTF-8 Plain Text
Duration: 21 min 23 s
Bit rate: 122 b/s
Frame rate: 0.416 FPS
Count of elements: 534
Stream size: 19.1 KiB (0%)
Title: Chinese (Simplified)
Language: Chinese (Simplied)
Default: No
Forced: No

Text #22
ID: 24
Format: UTF-8
Codec ID: S_TEXT/UTF8
Codec ID/Info: UTF-8 Plain Text
Duration: 21 min 23 s
Bit rate: 135 b/s
Frame rate: 0.416 FPS
Count of elements: 534
Stream size: 21.2 KiB (0%)
Title: Chinese (Traditional)
Language: Chinese (Traditional)
Default: No
Forced: No

Text #23
ID: 25
Format: UTF-8
Codec ID: S_TEXT/UTF8
Codec ID/Info: UTF-8 Plain Text
Duration: 21 min 23 s
Bit rate: 130 b/s
Frame rate: 0.416 FPS
Count of elements: 534
Stream size: 20.5 KiB (0%)
Title: Chinese (Traditional, Hong Kong SAR China)
Language: Chinese-Hant-HK
Default: No
Forced: No
ssl  EZTV RSS EZTV Status | EZTV API | DMCA: [email protected]