eztvx.to | eztvstatus.org
Search title:  
TV Packs only
 

Gold Rush S13E24 Runway to Redemption 1080p AMZN WEBRip DDP2 0 x264-NTb EZTV

Episode Breakdown
Gold Rush: Alaska
Gold Rush: Alaska TV Show S13E24

Season: 13
Episode: 24
Air Date: 17 March, 2023
Download Links
     Torrent Download     Magnet Download
     Anonymous Download
Added 1 year ago by eztv (verified).
Tracker Statistics
Seeds: 0
Peers: 1
Stats generated @ 14:30 on 19th Apr 2024
Torrent Info
Torrent File: Gold.Rush.S13E24.Runway.to.Redemption.1080p.AMZN.WEB-DL.DDP2.0.H.264-NTb[eztv.re].mkv
Torrent Hash: FE2BCD96B5EDA1E49F25B96EA28D635A91C690C6
Filesize: 3.34 GB
Released: 18th Mar 2023

File Format: MKV (Matroska)
Resolution: 1920x1080 px
Aspect Ratio: 16:9
Alternate Releases S L
Gold Rush S13E24 WEBRip x264-LAMA 4 0
Gold Rush S13E24 Runway to Redemption 720p WEB h264-B2B 0 0
Gold Rush S13E24 Runway to Redemption 720p HEVC x265-MeGusta 0 1
Gold Rush S13E24 Runway to Redemption 1080p WEB h264-B2B 3 0
Gold Rush S13E24 Runway to Redemption 1080p HEVC x265-MeGusta 0 0
Gold Rush S13E24 Runway to Redemption XviD-AFG 1 0

Gold Rush: Alaska S13E24 - Runway to Redemption

Summary:

Parker returns to the Klondike and drops a bombshell on his crew to make up for the Alaska debacle. Fred and son Christopher face off over the nightshift. Tony's Winchester Crew cash out for the season.



Gold Rush S13E24 Runway to Redemption 1080p AMZN WEBRip DDP2 0 x264-NTb EZTV
Gold Rush: Alaska S13E24 Screenshot
General
Unique ID: 116385160267460708971175189628306146199 (0x578EF76E2048728FAFB8A2E6CA514397)
Complete name: Gold.Rush.S13E24.Runway.to.Redemption.1080p.AMZN.WEB-DL.DDP2.0.H.264-NTb.mkv
Format: Matroska
Format version: Version 4
File size: 3.34 GiB
Duration: 48 min 7 s
Overall bit rate: 9 929 kb/s
Writing application: mkvmerge v74.0.0 ('You Oughta Know') 64-bit
Writing library: libebml v1.4.4 + libmatroska v1.7.1

Video
ID: 1
Format: AVC
Format/Info: Advanced Video Codec
Format profile: High@L4
Format settings: CABAC / 4 Ref Frames
Format settings, CABAC: Yes
Format settings, Reference frames: 4 frames
Codec ID: V_MPEG4/ISO/AVC
Duration: 48 min 7 s
Bit rate mode: Constant
Bit rate: 10 000 kb/s
Width: 1 920 pixels
Height: 1 080 pixels
Display aspect ratio: 16:9
Frame rate mode: Constant
Frame rate: 25.000 FPS
Color space: YUV
Chroma subsampling: 4:2:0
Bit depth: 8 bits
Scan type: Progressive
Bits/(Pixel*Frame): 0.193
Stream size: 3.26 GiB (98%)
Default: Yes
Forced: No
Color range: Limited
Color primaries: BT.709
Transfer characteristics: BT.709
Matrix coefficients: BT.709

Audio
ID: 2
Format: E-AC-3
Format/Info: Enhanced AC-3
Commercial name: Dolby Digital Plus
Codec ID: A_EAC3
Duration: 48 min 7 s
Bit rate mode: Constant
Bit rate: 224 kb/s
Channel(s): 2 channels
Channel layout: L R
Sampling rate: 48.0 kHz
Frame rate: 31.250 FPS (1536 SPF)
Compression mode: Lossy
Stream size: 77.1 MiB (2%)
Language: English (US)
Service kind: Complete Main
Default: Yes
Forced: No

Text #1
ID: 3
Format: UTF-8
Codec ID: S_TEXT/UTF8
Codec ID/Info: UTF-8 Plain Text
Duration: 47 min 38 s
Bit rate: 91 b/s
Frame rate: 0.300 FPS
Count of elements: 858
Stream size: 32.0 KiB (0%)
Language: English (US)
Default: No
Forced: No

Text #2
ID: 4
Format: UTF-8
Codec ID: S_TEXT/UTF8
Codec ID/Info: UTF-8 Plain Text
Duration: 47 min 38 s
Bit rate: 100 b/s
Frame rate: 0.315 FPS
Count of elements: 900
Stream size: 34.9 KiB (0%)
Title: SDH
Language: English (US)
Default: No
Forced: No
ssl  EZTV RSS EZTV Status | EZTV API | DMCA: [email protected]