eztvx.to | eztvstatus.org
Search title:  
TV Packs only
 

Your Honor US S02E10 Part Twenty 720p AMZN WEBRip DDP5 1 x264-NTb EZTV

Episode Breakdown
Your Honor
Your Honor TV Show S02E10

Season: 2
Episode: 10
Air Date: 17 March, 2023
Download Links
     Torrent Download     Magnet Download
     Anonymous Download
Added 11 months ago by eztv (verified).
Tracker Statistics
Seeds: 6
Peers: 0
Stats generated @ 02:35 on 5th Mar 2024
Torrent Info
Torrent File: Your.Honor.US.S02E10.Part.Twenty.720p.AMZN.WEB-DL.DDP5.1.H.264-NTb[eztv.re].mkv
Torrent Hash: 8C7AA271125CCB01AE3221AF97C8888D79F1A03E
Filesize: 1.07 GB
Released: 18th Mar 2023

File Format: MKV (Matroska)
Resolution: 1280x720 px
Aspect Ratio: 16:9
Alternate Releases S L
Your Honor S02E10 1080p WEB H264-GGEZ 8 0
Your Honor S02E10 XviD-AFG 1 0
Your Honor S02E10 1080p HEVC x265-MeGusta 4 0
Your Honor US S02E10 Part Twenty 1080p AMZN WEBRip DDP5 1 x264-NTb 7 2
Your Honor S02E10 FINAL MULTi 1080p WEBRip x264-S4LVE 1 0

Your Honor S02E10 - Part Twenty

Summary:

Michael exposes shocking information that impacts everyone. A startling revelation pushes Fia to make a life-altering decision. Big Mo proposes a deal with Jimmy Baxter. Gina manipulates her father Carmine to make a move of her own. Season finale.



Your Honor US S02E10 Part Twenty 720p AMZN WEBRip DDP5 1 x264-NTb EZTV
Your Honor S2E10 Screenshot
General
Unique ID: 27573535524251703171210411567577404649 (0x14BE784319D331628F82EED95A4194E9)
Complete name: Your.Honor.US.S02E10.Part.Twenty.720p.AMZN.WEB-DL.DDP5.1.H.264-NTb.mkv
Format: Matroska
Format version: Version 4
File size: 1.07 GiB
Duration: 58 min 25 s
Overall bit rate: 2 627 kb/s
Writing application: mkvmerge v74.0.0 ('You Oughta Know') 64-bit
Writing library: libebml v1.4.4 + libmatroska v1.7.1

Video
ID: 1
Format: AVC
Format/Info: Advanced Video Codec
Format profile: [email protected]
Format settings: CABAC / 4 Ref Frames
Format settings, CABAC: Yes
Format settings, Reference frames: 4 frames
Format settings, GOP: M=4, N=48
Codec ID: V_MPEG4/ISO/AVC
Duration: 58 min 25 s
Bit rate mode: Constant
Bit rate: 1 985 kb/s
Nominal bit rate: 6 000 kb/s
Width: 1 280 pixels
Height: 720 pixels
Display aspect ratio: 16:9
Frame rate mode: Constant
Frame rate: 23.976 (24000/1001) FPS
Color space: YUV
Chroma subsampling: 4:2:0
Bit depth: 8 bits
Scan type: Progressive
Bits/(Pixel*Frame): 0.090
Stream size: 830 MiB (76%)
Default: Yes
Forced: No
Color range: Limited
Color primaries: BT.709
Transfer characteristics: BT.709
Matrix coefficients: BT.709

Audio
ID: 2
Format: E-AC-3
Format/Info: Enhanced AC-3
Commercial name: Dolby Digital Plus
Codec ID: A_EAC3
Duration: 58 min 25 s
Bit rate mode: Constant
Bit rate: 640 kb/s
Channel(s): 6 channels
Channel layout: L R C LFE Ls Rs
Sampling rate: 48.0 kHz
Frame rate: 31.250 FPS (1536 SPF)
Compression mode: Lossy
Delay relative to video: 28 ms
Stream size: 267 MiB (24%)
Language: English (US)
Service kind: Complete Main
Default: Yes
Forced: No

Text #1
ID: 3
Format: UTF-8
Codec ID: S_TEXT/UTF8
Codec ID/Info: UTF-8 Plain Text
Duration: 57 min 11 s
Bit rate: 71 b/s
Frame rate: 0.249 FPS
Count of elements: 853
Stream size: 30.0 KiB (0%)
Language: English (US)
Default: No
Forced: No

Text #2
ID: 4
Format: UTF-8
Codec ID: S_TEXT/UTF8
Codec ID/Info: UTF-8 Plain Text
Duration: 57 min 11 s
Bit rate: 77 b/s
Frame rate: 0.264 FPS
Count of elements: 905
Stream size: 32.3 KiB (0%)
Title: SDH
Language: English (US)
Default: No
Forced: No
ssl  EZTV RSS EZTV Status | EZTV API | DMCA: [email protected]