eztvx.to | eztvstatus.org
Search title:  
TV Packs only
 

Gold Rush S13E24 WEBRip x264-LAMA EZTV

Episode Breakdown
Gold Rush: Alaska
Gold Rush: Alaska TV Show S13E24

Season: 13
Episode: 24
Air Date: 17 March, 2023
Download Links
     Torrent Download     Magnet Download
     Anonymous Download
Added 11 months ago by eztv (verified).
Tracker Statistics
Seeds: 6
Peers: 0
Stats generated @ 20:13 on 28th Feb 2024
Torrent Info
Torrent File: Gold.Rush.S13E24.WEBRip.x264-LAMA[eztv.re].mp4
Torrent Hash: E13872FF596337DB52C36C9990C595E8EB5936FB
Filesize: 467 MB
Released: 17th Mar 2023

File Format: MP4 (MPEG-4)
Resolution: 720x404 px
Aspect Ratio: 16:9
Alternate Releases S L
Gold Rush S13E24 Runway to Redemption 720p WEB h264-B2B 0 1
Gold Rush S13E24 Runway to Redemption 720p HEVC x265-MeGusta 1 0
Gold Rush S13E24 Runway to Redemption 1080p WEB h264-B2B 2 1
Gold Rush S13E24 Runway to Redemption 1080p HEVC x265-MeGusta 2 0
Gold Rush S13E24 Runway to Redemption XviD-AFG 1 0
Gold Rush S13E24 Runway to Redemption 1080p AMZN WEBRip DDP2 0 x264-NTb 0 0

Gold Rush: Alaska S13E24 - Runway to Redemption

Summary:

Parker returns to the Klondike and drops a bombshell on his crew to make up for the Alaska debacle. Fred and son Christopher face off over the nightshift. Tony's Winchester Crew cash out for the season.



Gold Rush S13E24 WEBRip x264-LAMA EZTV
Gold Rush: Alaska S13E24 Screenshot
General
Complete name: Gold.Rush.S13E24.WEBRip.x264-LAMA.mp4
Format: MPEG-4
Format profile: Base Media
Codec ID: isom (isom/iso2/avc1/mp41)
File size: 467 MiB
Duration: 48 min 1 s
Overall bit rate: 1 358 kb/s
Encoded date: UTC 2023-03-17 11:28:00
Tagged date: UTC 2023-03-17 11:28:00

Video
ID: 1
Format: AVC
Format/Info: Advanced Video Codec
Format profile: [email protected]
Format settings: CABAC / 5 Ref Frames
Format settings, CABAC: Yes
Format settings, Reference frames: 5 frames
Codec ID: avc1
Codec ID/Info: Advanced Video Coding
Duration: 48 min 1 s
Bit rate: 1 100 kb/s
Width: 720 pixels
Height: 400 pixels
Display aspect ratio: 16:9
Frame rate mode: Constant
Frame rate: 25.000 FPS
Color space: YUV
Chroma subsampling: 4:2:0
Bit depth: 8 bits
Scan type: Progressive
Bits/(Pixel*Frame): 0.153
Stream size: 376 MiB (81%)
Title: - Gold.Rush.S13E24.WEBRip.x264-LAMA
Writing library: x264 core 152
Encoding settings: cabac=1 / ref=5 / deblock=1:-1:-1 / analyse=0x3:0x113 / me=umh / subme=9 / psy=1 / psy_rd=1.00:0.15 / mixed_ref=1 / me_range=16 / chroma_me=1 / trellis=2 / 8x8dct=1 / cqm=0 / deadzone=21,11 / fast_pskip=1 / chroma_qp_offset=-3 / threads=12 / lookahead_threads=1 / sliced_threads=0 / nr=0 / decimate=1 / interlaced=0 / bluray_compat=0 / constrained_intra=0 / bframes=3 / b_pyramid=2 / b_adapt=2 / b_bias=0 / direct=3 / weightb=1 / open_gop=0 / weightp=2 / keyint=250 / keyint_min=25 / scenecut=40 / intra_refresh=0 / rc_lookahead=50 / rc=abr / mbtree=1 / bitrate=1100 / ratetol=1.0 / qcomp=0.60 / qpmin=0 / qpmax=69 / qpstep=4 / ip_ratio=1.40 / aq=1:1.00
Encoded date: UTC 2023-03-17 11:28:00
Tagged date: UTC 2023-03-17 11:28:00
Codec configuration box: avcC

Audio
ID: 2
Format: AAC LC
Format/Info: Advanced Audio Codec Low Complexity
Codec ID: mp4a-40-2
Duration: 48 min 1 s
Bit rate mode: Constant
Bit rate: 256 kb/s
Channel(s): 2 channels
Channel layout: L R
Sampling rate: 48.0 kHz
Frame rate: 46.875 FPS (1024 SPF)
Compression mode: Lossy
Stream size: 87.9 MiB (19%)
Title: - Gold.Rush.S13E24.WEBRip.x264-LAMA
Default: Yes
Alternate group: 1
Encoded date: UTC 2023-03-17 11:28:00
Tagged date: UTC 2023-03-17 11:28:00
ssl  EZTV RSS EZTV Status | EZTV API | DMCA: [email protected]