eztvx.to | eztvstatus.org
Search title:  
TV Packs only
 

Your Honor US S02E09 Part Nineteen REPACK 1080p AMZN WEBRip DDP5 1 x264-NTb EZTV

Episode Breakdown
Your Honor
Your Honor TV Show S02E09

Season: 2
Episode: 9
Air Date: 10 March, 2023
Download Links
     Torrent Download     Magnet Download
     Anonymous Download
Added 1 year ago by eztv (verified).
Tracker Statistics
Seeds: 15
Peers: 2
Stats generated @ 19:20 on 23rd Jun 2024
Torrent Info
Torrent File: Your.Honor.US.S02E09.Part.Nineteen.1080p.REPACK.AMZN.WEB-DL.DDP5.1.H.264-NTb[eztv.re].mkv
Torrent Hash: A461922F2F34BC534F12DB0C77DD6AF9EF3441C9
Filesize: 2.03 GB
Released: 16th Mar 2023

File Format: MKV (Matroska)
Resolution: 1920x1080 px
Aspect Ratio: 16:9
Alternate Releases S L
Your Honor US S02E09 Part Nineteen 720p AMZN WEBRip DDP5 1 x264-NTb 1 0
Your Honor US S02E09 Part Nineteen 1080p AMZN WEBRip DDP5 1 x264-NTb 1 0
Your Honor S02E09 1080p WEB H264-GGEZ 0 0
Your Honor S02E09 XviD-AFG 1 0
Your Honor S02E09 1080p HEVC x265-MeGusta 4 0
Your Honor S02E09 MULTi 1080p WEBRip x264-S4LVE 0 0

Your Honor S02E09 - Part Nineteen

Summary:

Prompted by Olivia, Michael goes to see Jimmy Baxter, who makes him an unexpected offer. Shifting loyalties in Big Mo's crew force her hand. Lee urges Michael for help.



Your Honor US S02E09 Part Nineteen REPACK 1080p AMZN WEBRip DDP5 1 x264-NTb EZTV
Your Honor S2E9 Screenshot
General
Unique ID: 21256808152343475523360105616673343367 (0xFFDE98EBD19AB2329C8C188069C0787)
Complete name: Your.Honor.US.S02E09.Part.Nineteen.1080p.REPACK.AMZN.WEB-DL.DDP5.1.H.264-NTb.mkv
Format: Matroska
Format version: Version 4
File size: 2.03 GiB
Duration: 54 min 46 s
Overall bit rate: 5 316 kb/s
Writing application: mkvmerge v74.0.0 ('You Oughta Know') 64-bit
Writing library: libebml v1.4.4 + libmatroska v1.7.1

Video
ID: 1
Format: AVC
Format/Info: Advanced Video Codec
Format profile: High@L4
Format settings: CABAC / 4 Ref Frames
Format settings, CABAC: Yes
Format settings, Reference frames: 4 frames
Codec ID: V_MPEG4/ISO/AVC
Duration: 54 min 46 s
Bit rate mode: Constant
Bit rate: 4 674 kb/s
Nominal bit rate: 10 000 kb/s
Width: 1 920 pixels
Height: 1 080 pixels
Display aspect ratio: 16:9
Frame rate mode: Constant
Frame rate: 23.976 (24000/1001) FPS
Color space: YUV
Chroma subsampling: 4:2:0
Bit depth: 8 bits
Scan type: Progressive
Bits/(Pixel*Frame): 0.094
Stream size: 1.79 GiB (88%)
Default: Yes
Forced: No
Color range: Limited
Color primaries: BT.709
Transfer characteristics: BT.709
Matrix coefficients: BT.709

Audio
ID: 2
Format: E-AC-3
Format/Info: Enhanced AC-3
Commercial name: Dolby Digital Plus
Codec ID: A_EAC3
Duration: 54 min 46 s
Bit rate mode: Constant
Bit rate: 640 kb/s
Channel(s): 6 channels
Channel layout: L R C LFE Ls Rs
Sampling rate: 48.0 kHz
Frame rate: 31.250 FPS (1536 SPF)
Compression mode: Lossy
Delay relative to video: 28 ms
Stream size: 251 MiB (12%)
Language: English (US)
Service kind: Complete Main
Default: Yes
Forced: No

Text #1
ID: 3
Format: UTF-8
Codec ID: S_TEXT/UTF8
Codec ID/Info: UTF-8 Plain Text
Duration: 53 min 4 s
Bit rate: 69 b/s
Frame rate: 0.245 FPS
Count of elements: 780
Stream size: 27.2 KiB (0%)
Language: English (US)
Default: No
Forced: No

Text #2
ID: 4
Format: UTF-8
Codec ID: S_TEXT/UTF8
Codec ID/Info: UTF-8 Plain Text
Duration: 53 min 8 s
Bit rate: 74 b/s
Frame rate: 0.265 FPS
Count of elements: 845
Stream size: 29.2 KiB (0%)
Title: SDH
Language: English (US)
Default: No
Forced: No
ssl  EZTV RSS EZTV Status | EZTV API | DMCA: [email protected]