eztvx.to | eztvstatus.org
Search title:  
TV Packs only
 

The Simpsons S34E16 Hostile Kirk Place 1080p HULU WEBRip DDP5 1 x264-NTb EZTV

Episode Breakdown
The Simpsons
The Simpsons TV Show S34E16

Season: 34
Episode: 16
Air Date: 12 March, 2023
Download Links
     Torrent Download     Magnet Download
     Anonymous Download
Added 1 year ago by eztv (verified).
Tracker Statistics
Seeds: 0
Peers: 2
Stats generated @ 20:17 on 21st May 2024
Torrent Info
Torrent File: The.Simpsons.S34E16.Hostile.Kirk.Place.1080p.HULU.WEB-DL.DD+5.1.H.264-NTb[eztv.re].mkv
Torrent Hash: FF60A13DD7808913D4DCA1ACF7F9CD00AB66FF6A
Filesize: 473 MB
Released: 13th Mar 2023

File Format: MKV (Matroska)
Resolution: 1920x1080 px
Aspect Ratio: 16:9
Alternate Releases S L
The Simpsons S34E16 1080p WEB H264-CAKES 21 4
The Simpsons S34E16 720p WEB H264-CAKES 0 2
The Simpsons S34E16 480p x264-mSD 3 2
The Simpsons S34E16 720p HEVC x265-MeGusta 2 2
The Simpsons S34E16 1080p HEVC x265-MeGusta 2 2
The Simpsons S34E16 XviD-AFG 0 4
The Simpsons S34E16 Hostile Kirk Place 1080p DSNP WEBRip DDP5 1 x264-NTb 2 2

The Simpsons S34E16 - Hostile Kirk Place

Summary:

By fanning the flames of hate and division instead of embracing historical fact, nobody Kirk Van Houten rises from obscurity to become arbiter of Springfield Elementary's curriculum--leading to a fascist, dystopian future where Kirk is Springfield's dictator.



The Simpsons S34E16 Hostile Kirk Place 1080p HULU WEBRip DDP5 1 x264-NTb EZTV
The Simpsons S34E16 Screenshot
General
Unique ID: 297434309853612562934684784694850200644 (0xDFC3C3AEA376466801E3272DE243A444)
Complete name: The.Simpsons.S34E16.Hostile.Kirk.Place.1080p.HULU.WEB-DL.DD+5.1.H.264-NTb.mkv
Format: Matroska
Format version: Version 4
File size: 473 MiB
Duration: 21 min 40 s
Overall bit rate: 3 049 kb/s
Writing application: mkvmerge v74.0.0 ('You Oughta Know') 64-bit
Writing library: libebml v1.4.4 + libmatroska v1.7.1

Video
ID: 1
Format: AVC
Format/Info: Advanced Video Codec
Format profile: High@L4
Format settings: CABAC / 4 Ref Frames
Format settings, CABAC: Yes
Format settings, Reference frames: 4 frames
Codec ID: V_MPEG4/ISO/AVC
Duration: 21 min 40 s
Bit rate: 2 791 kb/s
Width: 1 920 pixels
Height: 1 080 pixels
Display aspect ratio: 16:9
Frame rate mode: Constant
Frame rate: 23.976 (24000/1001) FPS
Color space: YUV
Chroma subsampling: 4:2:0
Bit depth: 8 bits
Scan type: Progressive
Bits/(Pixel*Frame): 0.056
Stream size: 433 MiB (92%)
Default: Yes
Forced: No

Audio
ID: 2
Format: E-AC-3
Format/Info: Enhanced AC-3
Commercial name: Dolby Digital Plus
Codec ID: A_EAC3
Duration: 21 min 40 s
Bit rate mode: Constant
Bit rate: 256 kb/s
Channel(s): 6 channels
Channel layout: L R C LFE Ls Rs
Sampling rate: 48.0 kHz
Frame rate: 31.250 FPS (1536 SPF)
Compression mode: Lossy
Stream size: 39.7 MiB (8%)
Language: English
Service kind: Complete Main
Default: Yes
Forced: No

Text #1
ID: 3
Format: UTF-8
Codec ID: S_TEXT/UTF8
Codec ID/Info: UTF-8 Plain Text
Duration: 21 min 9 s
Bit rate: 89 b/s
Frame rate: 0.358 FPS
Count of elements: 455
Stream size: 13.8 KiB (0%)
Language: English
Default: No
Forced: No

Text #2
ID: 4
Format: UTF-8
Codec ID: S_TEXT/UTF8
Codec ID/Info: UTF-8 Plain Text
Duration: 21 min 28 s
Bit rate: 94 b/s
Frame rate: 0.382 FPS
Count of elements: 492
Stream size: 14.8 KiB (0%)
Title: SDH
Language: English
Default: No
Forced: No

Menu
00:00:00.000: en:Chapter 1
00:08:18.001: en:Chapter 2
00:15:59.021: en:Chapter 3
00:20:48.003: en:Chapter 4
ssl  EZTV RSS EZTV Status | EZTV API | DMCA: [email protected]