eztvx.to | eztvstatus.org
Search title:  
TV Packs only
 

The Last of Us S01E08 When We Are in Need 1080p AMZN WEBRip DDP5 1 x264-NTb EZTV

Episode Breakdown
The Last of Us
The Last of Us TV Show S01E08

Season: 1
Episode: 8
Air Date: 5 March, 2023
Download Links
     Torrent Download     Magnet Download
     Anonymous Download
Added 1 year ago by eztv (verified).
Tracker Statistics
Seeds: 4
Peers: 1
Stats generated @ 23:29 on 23rd Apr 2024
Torrent Info
Torrent File: The.Last.of.Us.S01E08.When.We.Are.in.Need.1080p.AMZN.WEB-DL.DDP5.1.H.264-NTb[eztv.re].mkv
Torrent Hash: 731870C15605FD8E82687FF08202ABCA2668F340
Filesize: 2.98 GB
Released: 5th Mar 2023

File Format: MKV (Matroska)
Resolution: 1920x1080 px
Aspect Ratio: 16:9
Alternate Releases S L
The Last of Us S01E08 XviD-AFG 9 0
The Last of Us S01E08 1080p HEVC x265-MeGusta 196 28
The Last of Us S01E08 WEBRip x264-LAMA 7 1
The Last of Us S01E08 When We Are in Need 720p HMAX WEBRip DDP5 1 x264-NTb 10 2
The Last of Us S01E08 When We Are in Need 1080p HMAX WEBRip DDP5 1 x264-NTb 35 1
The Last Of Us S01E08 2160p CRAV WEB-DL DDP5 1 Atmos x265-NTb 15 1
The Last of Us S01E08 When We Are in Need 2160p HMAX WEB-DL DDP5 1 HDR HEVC-NTb 9 2

The Last of Us S01E08 - When We Are in Need

Summary:

Ellie crosses paths with a vengeful group of survivors – and draws the attention of its leader. A weakened Joel faces a new threat.



The Last of Us S01E08 When We Are in Need 1080p AMZN WEBRip DDP5 1 x264-NTb EZTV
The Last of Us S1E8 Screenshot
General
Unique ID: 193790132993046022887492909053745053971 (0x91CA9F3BC5D081F347ABE94E32484113)
Complete name: The.Last.of.Us.S01E08.When.We.Are.in.Need.1080p.AMZN.WEB-DL.DDP5.1.H.264-NTb.mkv
Format: Matroska
Format version: Version 4
File size: 2.98 GiB
Duration: 50 min 50 s
Overall bit rate: 8 384 kb/s
Writing application: mkvmerge v74.0.0 ('You Oughta Know') 64-bit
Writing library: libebml v1.4.4 + libmatroska v1.7.1

Video
ID: 1
Format: AVC
Format/Info: Advanced Video Codec
Format profile: High@L4
Format settings: CABAC / 4 Ref Frames
Format settings, CABAC: Yes
Format settings, Reference frames: 4 frames
Codec ID: V_MPEG4/ISO/AVC
Duration: 50 min 50 s
Bit rate mode: Constant
Bit rate: 7 614 kb/s
Nominal bit rate: 10 000 kb/s
Width: 1 920 pixels
Height: 1 080 pixels
Display aspect ratio: 16:9
Frame rate mode: Constant
Frame rate: 23.976 (24000/1001) FPS
Color space: YUV
Chroma subsampling: 4:2:0
Bit depth: 8 bits
Scan type: Progressive
Bits/(Pixel*Frame): 0.153
Stream size: 2.70 GiB (91%)
Default: Yes
Forced: No
Color range: Limited
Color primaries: BT.709
Transfer characteristics: BT.709
Matrix coefficients: BT.709

Audio
ID: 2
Format: E-AC-3 JOC
Format/Info: Enhanced AC-3 with Joint Object Coding
Commercial name: Dolby Digital Plus with Dolby Atmos
Codec ID: A_EAC3
Duration: 50 min 44 s
Bit rate mode: Constant
Bit rate: 768 kb/s
Channel(s): 6 channels
Channel layout: L R C LFE Ls Rs
Sampling rate: 48.0 kHz
Frame rate: 31.250 FPS (1536 SPF)
Compression mode: Lossy
Stream size: 279 MiB (9%)
Language: English
Service kind: Complete Main
Default: Yes
Forced: No
Complexity index: 16
Number of dynamic objects: 15
Bed channel count: 1 channel
Bed channel configuration: LFE

Text #1
ID: 3
Format: UTF-8
Codec ID: S_TEXT/UTF8
Codec ID/Info: UTF-8 Plain Text
Duration: 47 min 41 s
Bit rate: 32 b/s
Frame rate: 0.156 FPS
Count of elements: 445
Stream size: 11.5 KiB (0%)
Language: English (US)
Default: No
Forced: No

Text #2
ID: 4
Format: UTF-8
Codec ID: S_TEXT/UTF8
Codec ID/Info: UTF-8 Plain Text
Duration: 49 min 33 s
Bit rate: 39 b/s
Frame rate: 0.200 FPS
Count of elements: 595
Stream size: 14.3 KiB (0%)
Title: SDH
Language: English (US)
Default: No
Forced: No

Text #3
ID: 5
Format: UTF-8
Codec ID: S_TEXT/UTF8
Codec ID/Info: UTF-8 Plain Text
Duration: 49 min 8 s
Bit rate: 48 b/s
Frame rate: 0.151 FPS
Count of elements: 445
Stream size: 17.5 KiB (0%)
Language: Bulgarian (BG)
Default: No
Forced: No

Text #4
ID: 6
Format: UTF-8
Codec ID: S_TEXT/UTF8
Codec ID/Info: UTF-8 Plain Text
Duration: 49 min 8 s
Bit rate: 29 b/s
Frame rate: 0.151 FPS
Count of elements: 445
Stream size: 10.5 KiB (0%)
Language: Czech (CZ)
Default: No
Forced: No

Text #5
ID: 7
Format: UTF-8
Codec ID: S_TEXT/UTF8
Codec ID/Info: UTF-8 Plain Text
Duration: 49 min 8 s
Bit rate: 29 b/s
Frame rate: 0.149 FPS
Count of elements: 440
Stream size: 10.6 KiB (0%)
Language: Danish (DK)
Default: No
Forced: No

Text #6
ID: 8
Format: UTF-8
Codec ID: S_TEXT/UTF8
Codec ID/Info: UTF-8 Plain Text
Duration: 49 min 8 s
Bit rate: 51 b/s
Frame rate: 0.151 FPS
Count of elements: 445
Stream size: 18.5 KiB (0%)
Language: Greek (GR)
Default: No
Forced: No

Text #7
ID: 9
Format: UTF-8
Codec ID: S_TEXT/UTF8
Codec ID/Info: UTF-8 Plain Text
Duration: 49 min 8 s
Bit rate: 29 b/s
Frame rate: 0.151 FPS
Count of elements: 444
Stream size: 10.6 KiB (0%)
Title: Spanish (Latin America)
Language: Spanish (Latin America)
Default: No
Forced: No

Text #8
ID: 10
Format: UTF-8
Codec ID: S_TEXT/UTF8
Codec ID/Info: UTF-8 Plain Text
Duration: 47 min 41 s
Bit rate: 34 b/s
Frame rate: 0.138 FPS
Count of elements: 394
Stream size: 11.9 KiB (0%)
Title: Spanish (Spain)
Language: Spanish (ES)
Default: No
Forced: No

Text #9
ID: 11
Format: UTF-8
Codec ID: S_TEXT/UTF8
Codec ID/Info: UTF-8 Plain Text
Duration: 49 min 8 s
Bit rate: 32 b/s
Frame rate: 0.151 FPS
Count of elements: 444
Stream size: 11.5 KiB (0%)
Language: Estonian (EE)
Default: No
Forced: No

Text #10
ID: 12
Format: UTF-8
Codec ID: S_TEXT/UTF8
Codec ID/Info: UTF-8 Plain Text
Duration: 49 min 8 s
Bit rate: 33 b/s
Frame rate: 0.149 FPS
Count of elements: 440
Stream size: 11.9 KiB (0%)
Language: Finnish (FI)
Default: No
Forced: No

Text #11
ID: 13
Format: UTF-8
Codec ID: S_TEXT/UTF8
Codec ID/Info: UTF-8 Plain Text
Duration: 49 min 8 s
Bit rate: 28 b/s
Frame rate: 0.151 FPS
Count of elements: 445
Stream size: 10.3 KiB (0%)
Language: Croatian (HR)
Default: No
Forced: No

Text #12
ID: 14
Format: UTF-8
Codec ID: S_TEXT/UTF8
Codec ID/Info: UTF-8 Plain Text
Duration: 49 min 8 s
Bit rate: 29 b/s
Frame rate: 0.151 FPS
Count of elements: 444
Stream size: 10.7 KiB (0%)
Language: Hungarian (HU)
Default: No
Forced: No

Text #13
ID: 15
Format: UTF-8
Codec ID: S_TEXT/UTF8
Codec ID/Info: UTF-8 Plain Text
Duration: 49 min 8 s
Bit rate: 34 b/s
Frame rate: 0.151 FPS
Count of elements: 444
Stream size: 12.6 KiB (0%)
Language: Icelandic (IS)
Default: No
Forced: No

Text #14
ID: 16
Format: UTF-8
Codec ID: S_TEXT/UTF8
Codec ID/Info: UTF-8 Plain Text
Duration: 49 min 8 s
Bit rate: 29 b/s
Frame rate: 0.151 FPS
Count of elements: 444
Stream size: 10.8 KiB (0%)
Language: Lithuanian (LT)
Default: No
Forced: No

Text #15
ID: 17
Format: UTF-8
Codec ID: S_TEXT/UTF8
Codec ID/Info: UTF-8 Plain Text
Duration: 49 min 8 s
Bit rate: 31 b/s
Frame rate: 0.151 FPS
Count of elements: 445
Stream size: 11.4 KiB (0%)
Language: Latvian (LV)
Default: No
Forced: No

Text #16
ID: 18
Format: UTF-8
Codec ID: S_TEXT/UTF8
Codec ID/Info: UTF-8 Plain Text
Duration: 49 min 8 s
Bit rate: 53 b/s
Frame rate: 0.151 FPS
Count of elements: 445
Stream size: 19.1 KiB (0%)
Language: Macedonian (MK)
Default: No
Forced: No

Text #17
ID: 19
Format: UTF-8
Codec ID: S_TEXT/UTF8
Codec ID/Info: UTF-8 Plain Text
Duration: 49 min 8 s
Bit rate: 28 b/s
Frame rate: 0.145 FPS
Count of elements: 427
Stream size: 10.2 KiB (0%)
Language: Dutch (NL)
Default: No
Forced: No

Text #18
ID: 20
Format: UTF-8
Codec ID: S_TEXT/UTF8
Codec ID/Info: UTF-8 Plain Text
Duration: 49 min 8 s
Bit rate: 30 b/s
Frame rate: 0.150 FPS
Count of elements: 442
Stream size: 10.9 KiB (0%)
Language: Norwegian (NO)
Default: No
Forced: No

Text #19
ID: 21
Format: UTF-8
Codec ID: S_TEXT/UTF8
Codec ID/Info: UTF-8 Plain Text
Duration: 49 min 8 s
Bit rate: 28 b/s
Frame rate: 0.150 FPS
Count of elements: 442
Stream size: 10.1 KiB (0%)
Language: Polish (PL)
Default: No
Forced: No

Text #20
ID: 22
Format: UTF-8
Codec ID: S_TEXT/UTF8
Codec ID/Info: UTF-8 Plain Text
Duration: 49 min 8 s
Bit rate: 27 b/s
Frame rate: 0.151 FPS
Count of elements: 445
Stream size: 9.89 KiB (0%)
Title: Portuguese (Brazil)
Language: Portuguese (BR)
Default: No
Forced: No

Text #21
ID: 23
Format: UTF-8
Codec ID: S_TEXT/UTF8
Codec ID/Info: UTF-8 Plain Text
Duration: 49 min 8 s
Bit rate: 30 b/s
Frame rate: 0.151 FPS
Count of elements: 445
Stream size: 11.0 KiB (0%)
Title: Portuguese (Portugal)
Language: Portuguese (PT)
Default: No
Forced: No

Text #22
ID: 24
Format: UTF-8
Codec ID: S_TEXT/UTF8
Codec ID/Info: UTF-8 Plain Text
Duration: 49 min 8 s
Bit rate: 32 b/s
Frame rate: 0.150 FPS
Count of elements: 442
Stream size: 11.9 KiB (0%)
Language: Romanian (RO)
Default: No
Forced: No

Text #23
ID: 25
Format: UTF-8
Codec ID: S_TEXT/UTF8
Codec ID/Info: UTF-8 Plain Text
Duration: 49 min 27 s
Bit rate: 48 b/s
Frame rate: 0.150 FPS
Count of elements: 446
Stream size: 17.7 KiB (0%)
Language: Russian (RU)
Default: No
Forced: No

Text #24
ID: 26
Format: UTF-8
Codec ID: S_TEXT/UTF8
Codec ID/Info: UTF-8 Plain Text
Duration: 49 min 8 s
Bit rate: 29 b/s
Frame rate: 0.151 FPS
Count of elements: 445
Stream size: 10.7 KiB (0%)
Language: Slovak (SK)
Default: No
Forced: No

Text #25
ID: 27
Format: UTF-8
Codec ID: S_TEXT/UTF8
Codec ID/Info: UTF-8 Plain Text
Duration: 49 min 8 s
Bit rate: 28 b/s
Frame rate: 0.151 FPS
Count of elements: 445
Stream size: 10.3 KiB (0%)
Language: Slovenian (SI)
Default: No
Forced: No

Text #26
ID: 28
Format: UTF-8
Codec ID: S_TEXT/UTF8
Codec ID/Info: UTF-8 Plain Text
Duration: 49 min 8 s
Bit rate: 29 b/s
Frame rate: 0.151 FPS
Count of elements: 445
Stream size: 10.6 KiB (0%)
Language: Serbian-Latn-RS
Default: No
Forced: No

Text #27
ID: 29
Format: UTF-8
Codec ID: S_TEXT/UTF8
Codec ID/Info: UTF-8 Plain Text
Duration: 49 min 8 s
Bit rate: 28 b/s
Frame rate: 0.149 FPS
Count of elements: 440
Stream size: 10.2 KiB (0%)
Language: Swedish (SE)
Default: No
Forced: No

Text #28
ID: 30
Format: UTF-8
Codec ID: S_TEXT/UTF8
Codec ID/Info: UTF-8 Plain Text
Duration: 49 min 8 s
Bit rate: 31 b/s
Frame rate: 0.151 FPS
Count of elements: 445
Stream size: 11.4 KiB (0%)
Language: Turkish (TR)
Default: No
Forced: No

Menu
00:00:06.924: en:Intro
00:01:11.739: en:Chapter 1
00:49:45.000: en:Credits
ssl  EZTV RSS EZTV Status | EZTV API | DMCA: [email protected]