eztvx.to | eztvstatus.org
Search title:  
TV Packs only
 

The Last of Us S01E08 When We Are in Need 720p HMAX WEBRip DDP5 1 x264-NTb EZTV

Episode Breakdown
The Last of Us
The Last of Us TV Show S01E08

Season: 1
Episode: 8
Air Date: 5 March, 2023
Download Links
     Torrent Download     Magnet Download
     Anonymous Download
Added 1 year ago by eztv (verified).
Tracker Statistics
Seeds: 7
Peers: 1
Stats generated @ 17:56 on 21st May 2024
Torrent Info
Torrent File: The.Last.of.Us.S01E08.When.We.Are.in.Need.720p.HMAX.WEB-DL.DDP5.1.H.264-NTb[eztv.re].mkv
Torrent Hash: F44AECB93AA31755ECAB0FC02F7D10A6DF3ADDF1
Filesize: 1.48 GB
Released: 5th Mar 2023

File Format: MKV (Matroska)
Resolution: 1280x720 px
Aspect Ratio: 16:9
Alternate Releases S L
The Last of Us S01E08 XviD-AFG 7 1
The Last of Us S01E08 1080p HEVC x265-MeGusta 165 16
The Last of Us S01E08 WEBRip x264-LAMA 2 1
The Last of Us S01E08 When We Are in Need 1080p HMAX WEBRip DDP5 1 x264-NTb 25 1
The Last of Us S01E08 When We Are in Need 1080p AMZN WEBRip DDP5 1 x264-NTb 7 1
The Last Of Us S01E08 2160p CRAV WEB-DL DDP5 1 Atmos x265-NTb 12 0
The Last of Us S01E08 When We Are in Need 2160p HMAX WEB-DL DDP5 1 HDR HEVC-NTb 6 1

The Last of Us S01E08 - When We Are in Need

Summary:

Ellie crosses paths with a vengeful group of survivors – and draws the attention of its leader. A weakened Joel faces a new threat.



The Last of Us S01E08 When We Are in Need 720p HMAX WEBRip DDP5 1 x264-NTb EZTV
The Last of Us S1E8 Screenshot
General
Unique ID: 298967683678927818854634848365672787529 (0xE0EB14D942B753E23946A9F28C01EE49)
Complete name: The.Last.of.Us.S01E08.When.We.Are.in.Need.720p.HMAX.WEB-DL.DDP5.1.H.264-NTb.mkv
Format: Matroska
Format version: Version 4
File size: 1.48 GiB
Duration: 50 min 44 s
Overall bit rate mode: Variable
Overall bit rate: 4 168 kb/s
Writing application: mkvmerge v69.0.0 ('Day And Age') 64-bit
Writing library: libebml v1.4.2 + libmatroska v1.6.4

Video
ID: 1
Format: AVC
Format/Info: Advanced Video Codec
Format profile: [email protected]
Format settings: CABAC / 4 Ref Frames
Format settings, CABAC: Yes
Format settings, Reference frames: 4 frames
Codec ID: V_MPEG4/ISO/AVC
Duration: 50 min 44 s
Bit rate mode: Variable
Bit rate: 3 400 kb/s
Maximum bit rate: 5 100 kb/s
Width: 1 280 pixels
Height: 720 pixels
Display aspect ratio: 16:9
Frame rate mode: Constant
Frame rate: 23.976 (24000/1001) FPS
Color space: YUV
Chroma subsampling: 4:2:0
Bit depth: 8 bits
Scan type: Progressive
Bits/(Pixel*Frame): 0.154
Stream size: 1.20 GiB (81%)
Writing library: x264 core 157 r2965 861cec4
Encoding settings: cabac=1 / ref=4 / deblock=1:0:0 / analyse=0x1:0x111 / me=hex / subme=7 / psy=1 / psy_rd=1.00:0.00 / mixed_ref=1 / me_range=16 / chroma_me=1 / trellis=1 / 8x8dct=0 / cqm=0 / deadzone=21,11 / fast_pskip=1 / chroma_qp_offset=-2 / threads=22 / lookahead_threads=3 / sliced_threads=0 / nr=0 / decimate=1 / interlaced=0 / bluray_compat=0 / constrained_intra=0 / bframes=3 / b_pyramid=2 / b_adapt=1 / b_bias=0 / direct=1 / weightb=1 / open_gop=0 / weightp=2 / keyint=96 / keyint_min=96 / scenecut=40 / intra_refresh=0 / rc_lookahead=40 / rc=2pass / mbtree=1 / bitrate=3400 / ratetol=1.0 / qcomp=0.60 / qpmin=0 / qpmax=69 / qpstep=4 / cplxblur=20.0 / qblur=0.5 / vbv_maxrate=5100 / vbv_bufsize=2550 / nal_hrd=vbr / filler=0 / ip_ratio=1.40 / aq=1:1.00
Default: Yes
Forced: No
Color range: Limited
Color primaries: BT.709
Transfer characteristics: BT.709
Matrix coefficients: BT.709

Audio
ID: 2
Format: E-AC-3 JOC
Format/Info: Enhanced AC-3 with Joint Object Coding
Commercial name: Dolby Digital Plus with Dolby Atmos
Codec ID: A_EAC3
Duration: 50 min 44 s
Bit rate mode: Constant
Bit rate: 768 kb/s
Channel(s): 6 channels
Channel layout: L R C LFE Ls Rs
Sampling rate: 48.0 kHz
Frame rate: 31.250 FPS (1536 SPF)
Compression mode: Lossy
Stream size: 279 MiB (18%)
Language: English (US)
Service kind: Complete Main
Default: Yes
Forced: No
Complexity index: 16
Number of dynamic objects: 15
Bed channel count: 1 channel
Bed channel configuration: LFE

Text #1
ID: 3
Format: UTF-8
Codec ID: S_TEXT/UTF8
Codec ID/Info: UTF-8 Plain Text
Duration: 47 min 41 s
Bit rate: 32 b/s
Frame rate: 0.156 FPS
Count of elements: 445
Stream size: 11.5 KiB (0%)
Language: English (US)
Default: No
Forced: No

Text #2
ID: 4
Format: UTF-8
Codec ID: S_TEXT/UTF8
Codec ID/Info: UTF-8 Plain Text
Duration: 49 min 33 s
Bit rate: 39 b/s
Frame rate: 0.199 FPS
Count of elements: 593
Stream size: 14.3 KiB (0%)
Title: SDH
Language: English (US)
Default: No
Forced: No

Text #3
ID: 5
Format: UTF-8
Codec ID: S_TEXT/UTF8
Codec ID/Info: UTF-8 Plain Text
Duration: 49 min 8 s
Bit rate: 48 b/s
Frame rate: 0.151 FPS
Count of elements: 444
Stream size: 17.5 KiB (0%)
Language: Bulgarian (BG)
Default: No
Forced: No

Text #4
ID: 6
Format: UTF-8
Codec ID: S_TEXT/UTF8
Codec ID/Info: UTF-8 Plain Text
Duration: 49 min 8 s
Bit rate: 29 b/s
Frame rate: 0.151 FPS
Count of elements: 444
Stream size: 10.5 KiB (0%)
Language: Czech (CZ)
Default: No
Forced: No

Text #5
ID: 7
Format: UTF-8
Codec ID: S_TEXT/UTF8
Codec ID/Info: UTF-8 Plain Text
Duration: 49 min 8 s
Bit rate: 29 b/s
Frame rate: 0.149 FPS
Count of elements: 440
Stream size: 10.6 KiB (0%)
Language: Danish (DK)
Default: No
Forced: No

Text #6
ID: 8
Format: UTF-8
Codec ID: S_TEXT/UTF8
Codec ID/Info: UTF-8 Plain Text
Duration: 49 min 8 s
Bit rate: 51 b/s
Frame rate: 0.151 FPS
Count of elements: 445
Stream size: 18.5 KiB (0%)
Language: Greek (GR)
Default: No
Forced: No

Text #7
ID: 9
Format: UTF-8
Codec ID: S_TEXT/UTF8
Codec ID/Info: UTF-8 Plain Text
Duration: 49 min 8 s
Bit rate: 29 b/s
Frame rate: 0.150 FPS
Count of elements: 443
Stream size: 10.6 KiB (0%)
Title: Spanish (Latin America)
Language: Spanish (Latin America)
Default: No
Forced: No

Text #8
ID: 10
Format: UTF-8
Codec ID: S_TEXT/UTF8
Codec ID/Info: UTF-8 Plain Text
Duration: 47 min 41 s
Bit rate: 34 b/s
Frame rate: 0.138 FPS
Count of elements: 394
Stream size: 11.9 KiB (0%)
Title: Spanish (Spain)
Language: Spanish (ES)
Default: No
Forced: No

Text #9
ID: 11
Format: UTF-8
Codec ID: S_TEXT/UTF8
Codec ID/Info: UTF-8 Plain Text
Duration: 49 min 8 s
Bit rate: 31 b/s
Frame rate: 0.150 FPS
Count of elements: 443
Stream size: 11.5 KiB (0%)
Language: Estonian (EE)
Default: No
Forced: No

Text #10
ID: 12
Format: UTF-8
Codec ID: S_TEXT/UTF8
Codec ID/Info: UTF-8 Plain Text
Duration: 49 min 8 s
Bit rate: 31 b/s
Frame rate: 0.149 FPS
Count of elements: 440
Stream size: 11.2 KiB (0%)
Language: Finnish (FI)
Default: No
Forced: No

Text #11
ID: 13
Format: UTF-8
Codec ID: S_TEXT/UTF8
Codec ID/Info: UTF-8 Plain Text
Duration: 49 min 8 s
Bit rate: 28 b/s
Frame rate: 0.151 FPS
Count of elements: 444
Stream size: 10.3 KiB (0%)
Language: Croatian (HR)
Default: No
Forced: No

Text #12
ID: 14
Format: UTF-8
Codec ID: S_TEXT/UTF8
Codec ID/Info: UTF-8 Plain Text
Duration: 49 min 8 s
Bit rate: 29 b/s
Frame rate: 0.150 FPS
Count of elements: 443
Stream size: 10.7 KiB (0%)
Language: Hungarian (HU)
Default: No
Forced: No

Text #13
ID: 15
Format: UTF-8
Codec ID: S_TEXT/UTF8
Codec ID/Info: UTF-8 Plain Text
Duration: 49 min 8 s
Bit rate: 34 b/s
Frame rate: 0.151 FPS
Count of elements: 444
Stream size: 12.6 KiB (0%)
Language: Icelandic (IS)
Default: No
Forced: No

Text #14
ID: 16
Format: UTF-8
Codec ID: S_TEXT/UTF8
Codec ID/Info: UTF-8 Plain Text
Duration: 49 min 8 s
Bit rate: 29 b/s
Frame rate: 0.150 FPS
Count of elements: 443
Stream size: 10.8 KiB (0%)
Language: Lithuanian (LT)
Default: No
Forced: No

Text #15
ID: 17
Format: UTF-8
Codec ID: S_TEXT/UTF8
Codec ID/Info: UTF-8 Plain Text
Duration: 49 min 8 s
Bit rate: 31 b/s
Frame rate: 0.151 FPS
Count of elements: 444
Stream size: 11.3 KiB (0%)
Language: Latvian (LV)
Default: No
Forced: No

Text #16
ID: 18
Format: UTF-8
Codec ID: S_TEXT/UTF8
Codec ID/Info: UTF-8 Plain Text
Duration: 49 min 8 s
Bit rate: 52 b/s
Frame rate: 0.151 FPS
Count of elements: 444
Stream size: 19.1 KiB (0%)
Language: Macedonian (MK)
Default: No
Forced: No

Text #17
ID: 19
Format: UTF-8
Codec ID: S_TEXT/UTF8
Codec ID/Info: UTF-8 Plain Text
Duration: 49 min 8 s
Bit rate: 28 b/s
Frame rate: 0.144 FPS
Count of elements: 426
Stream size: 10.2 KiB (0%)
Language: Dutch (NL)
Default: No
Forced: No

Text #18
ID: 20
Format: UTF-8
Codec ID: S_TEXT/UTF8
Codec ID/Info: UTF-8 Plain Text
Duration: 49 min 8 s
Bit rate: 30 b/s
Frame rate: 0.150 FPS
Count of elements: 441
Stream size: 10.9 KiB (0%)
Language: Norwegian (NO)
Default: No
Forced: No

Text #19
ID: 21
Format: UTF-8
Codec ID: S_TEXT/UTF8
Codec ID/Info: UTF-8 Plain Text
Duration: 49 min 8 s
Bit rate: 28 b/s
Frame rate: 0.150 FPS
Count of elements: 441
Stream size: 10.1 KiB (0%)
Language: Polish (PL)
Default: No
Forced: No

Text #20
ID: 22
Format: UTF-8
Codec ID: S_TEXT/UTF8
Codec ID/Info: UTF-8 Plain Text
Duration: 49 min 8 s
Bit rate: 27 b/s
Frame rate: 0.151 FPS
Count of elements: 445
Stream size: 9.88 KiB (0%)
Title: Portuguese (Brazil)
Language: Portuguese (BR)
Default: No
Forced: No

Text #21
ID: 23
Format: UTF-8
Codec ID: S_TEXT/UTF8
Codec ID/Info: UTF-8 Plain Text
Duration: 49 min 8 s
Bit rate: 30 b/s
Frame rate: 0.151 FPS
Count of elements: 444
Stream size: 11.0 KiB (0%)
Title: Portuguese (Portugal)
Language: Portuguese (PT)
Default: No
Forced: No

Text #22
ID: 24
Format: UTF-8
Codec ID: S_TEXT/UTF8
Codec ID/Info: UTF-8 Plain Text
Duration: 49 min 8 s
Bit rate: 32 b/s
Frame rate: 0.150 FPS
Count of elements: 442
Stream size: 11.9 KiB (0%)
Language: Romanian (RO)
Default: No
Forced: No

Text #23
ID: 25
Format: UTF-8
Codec ID: S_TEXT/UTF8
Codec ID/Info: UTF-8 Plain Text
Duration: 49 min 27 s
Bit rate: 48 b/s
Frame rate: 0.150 FPS
Count of elements: 445
Stream size: 17.6 KiB (0%)
Language: Russian (RU)
Default: No
Forced: No

Text #24
ID: 26
Format: UTF-8
Codec ID: S_TEXT/UTF8
Codec ID/Info: UTF-8 Plain Text
Duration: 49 min 8 s
Bit rate: 29 b/s
Frame rate: 0.151 FPS
Count of elements: 444
Stream size: 10.7 KiB (0%)
Language: Slovak (SK)
Default: No
Forced: No

Text #25
ID: 27
Format: UTF-8
Codec ID: S_TEXT/UTF8
Codec ID/Info: UTF-8 Plain Text
Duration: 49 min 8 s
Bit rate: 28 b/s
Frame rate: 0.151 FPS
Count of elements: 444
Stream size: 10.3 KiB (0%)
Language: Slovenian (SI)
Default: No
Forced: No

Text #26
ID: 28
Format: UTF-8
Codec ID: S_TEXT/UTF8
Codec ID/Info: UTF-8 Plain Text
Duration: 49 min 8 s
Bit rate: 29 b/s
Frame rate: 0.151 FPS
Count of elements: 444
Stream size: 10.6 KiB (0%)
Language: Serbian-Latn-RS
Default: No
Forced: No

Text #27
ID: 29
Format: UTF-8
Codec ID: S_TEXT/UTF8
Codec ID/Info: UTF-8 Plain Text
Duration: 49 min 8 s
Bit rate: 28 b/s
Frame rate: 0.149 FPS
Count of elements: 440
Stream size: 10.2 KiB (0%)
Language: Swedish (SE)
Default: No
Forced: No

Text #28
ID: 30
Format: UTF-8
Codec ID: S_TEXT/UTF8
Codec ID/Info: UTF-8 Plain Text
Duration: 49 min 8 s
Bit rate: 31 b/s
Frame rate: 0.151 FPS
Count of elements: 444
Stream size: 11.4 KiB (0%)
Language: Turkish (TR)
Default: No
Forced: No

Menu
00:00:06.924: en:Intro
00:01:11.739: en:Chapter 1
00:49:45.000: en:Credits
ssl  EZTV RSS EZTV Status | EZTV API | DMCA: [email protected]