eztvx.to | eztvstatus.org
Search title:  
TV Packs only
 

Your Honor US S02E08 2160p STAN WEB-DL x265 8bit SDR DDP5 1-NTb EZTV

Episode Breakdown
Your Honor
Your Honor TV Show S02E08

Season: 2
Episode: 8
Air Date: 3 March, 2023
Download Links
     Torrent Download     Magnet Download
     Anonymous Download
Added 1 year ago by eztv (verified).
Tracker Statistics
Seeds: 0
Peers: 0
Stats generated @ 03:19 on 25th Jul 2024
Torrent Info
Torrent File: Your.Honor.US.S02E08.Part.Eighteen.2160p.STAN.WEB-DL.DDP5.1.H.265-NTb[eztv.re].mkv
Torrent Hash: 5A3A9EF9C99402659F310933B418AB33246FD127
Filesize: 5.10 GB
Released: 3rd Mar 2023

File Format: MKV (Matroska)
Resolution: 720x404 px
Aspect Ratio: 16:9
Alternate Releases S L
Your Honor US S02E08 WEBRip x264-LAMA 3 0
Your Honor US S02E08 Part Eighteen 1080p AMZN WEBRip DDP5 1 x264-NTb 7 0
Your Honor US S02E08 Part Eighteen 720p AMZN WEBRip DDP5 1 x264-NTb 1 0
Your Honor US S02E08 2160p PMTP WEB-DL DDP5 1 DV MKV x265-NTb 2 1
Your Honor US S02E08 2160p PMTP WEB-DL x265 10bit HDR10Plus DDP5 1 x265-NTb 1 0
Your Honor S02E08 MULTi 1080p WEBRip x264-S4LVE 0 1

Your Honor S02E08 - Part Eighteen

Summary:

Eugene escapes danger only to run headfirst into new jeopardy. Frustrated with Michael, Olivia sets her sights on an unlikely new mark. Big Mo's triumphant opening night takes an unexpected dark turn.



Your Honor US S02E08 2160p STAN WEB-DL x265 8bit SDR DDP5 1-NTb EZTV
Your Honor S2E8 Screenshot
General
Unique ID: 238033473990882955941654493677260219365 (0xB313945C3EDFBE9CB98437441049A3E5)
Complete name: Your.Honor.US.S02E08.Part.Eighteen.2160p.STAN.WEB-DL.DDP5.1.H.265-NTb.mkv
Format: Matroska
Format version: Version 4
File size: 5.10 GiB
Duration: 51 min 56 s
Overall bit rate: 14.1 Mb/s
Writing application: mkvmerge v74.0.0 ('You Oughta Know') 64-bit
Writing library: libebml v1.4.4 + libmatroska v1.7.1

Video
ID: 1
Format: HEVC
Format/Info: High Efficiency Video Coding
Format profile: Main@L5@High
Codec ID: V_MPEGH/ISO/HEVC
Duration: 51 min 43 s
Bit rate: 13.5 Mb/s
Width: 3 840 pixels
Height: 2 026 pixels
Display aspect ratio: 1.895
Frame rate mode: Constant
Frame rate: 23.976 (24000/1001) FPS
Color space: YUV
Chroma subsampling: 4:2:0
Bit depth: 8 bits
Bits/(Pixel*Frame): 0.072
Stream size: 4.87 GiB (95%)
Default: Yes
Forced: No
Color range: Limited
Color primaries: BT.709
Transfer characteristics: BT.709
Matrix coefficients: BT.709

Audio
ID: 2
Format: E-AC-3
Format/Info: Enhanced AC-3
Commercial name: Dolby Digital Plus
Codec ID: A_EAC3
Duration: 51 min 56 s
Bit rate mode: Constant
Bit rate: 640 kb/s
Channel(s): 6 channels
Channel layout: L R C LFE Ls Rs
Sampling rate: 48.0 kHz
Frame rate: 31.250 FPS (1536 SPF)
Compression mode: Lossy
Stream size: 238 MiB (5%)
Language: English
Service kind: Complete Main
Default: Yes
Forced: No

Text #1
ID: 3
Format: UTF-8
Codec ID: S_TEXT/UTF8
Codec ID/Info: UTF-8 Plain Text
Duration: 50 min 11 s
Bit rate: 75 b/s
Frame rate: 0.293 FPS
Count of elements: 881
Stream size: 27.6 KiB (0%)
Language: English
Default: No
Forced: No

Text #2
ID: 4
Format: UTF-8
Codec ID: S_TEXT/UTF8
Codec ID/Info: UTF-8 Plain Text
Duration: 51 min 24 s
Bit rate: 79 b/s
Frame rate: 0.315 FPS
Count of elements: 971
Stream size: 29.9 KiB (0%)
Title: SDH
Language: English
Default: No
Forced: No

Menu
00:00:04.000: Recap
00:02:03.000: Chapter 1
00:07:28.000: Intro
00:07:42.000: Chapter 2
00:50:24.000: Credits
ssl  EZTV RSS EZTV Status | EZTV API | DMCA: [email protected]