eztvx.to | eztvstatus.org
Search title:  
TV Packs only
 

Your Honor US S02E08 2160p PMTP WEB-DL x265 10bit HDR10Plus DDP5 1 x265-NTb EZTV

Episode Breakdown
Your Honor
Your Honor TV Show S02E08

Season: 2
Episode: 8
Air Date: 3 March, 2023
Download Links
     Torrent Download     Magnet Download
     Anonymous Download
Added 1 year ago by eztv (verified).
Tracker Statistics
Seeds: 2
Peers: 0
Stats generated @ 09:27 on 18th Apr 2024
Torrent Info
Torrent File: Your.Honor.US.S02E08.Part.Eighteen.2160p.PMTP.WEB-DL.DDP5.1.HDR.H.265-NTb[eztv.re].mkv
Torrent Hash: 98D0E7698BDDD995F0F5CB8988963C9165F508DC
Filesize: 5.20 GB
Released: 3rd Mar 2023

File Format: MKV (Matroska)
Resolution: 720x404 px
Aspect Ratio: 16:9
Alternate Releases S L
Your Honor US S02E08 WEBRip x264-LAMA 5 0
Your Honor US S02E08 Part Eighteen 1080p AMZN WEBRip DDP5 1 x264-NTb 3 1
Your Honor US S02E08 Part Eighteen 720p AMZN WEBRip DDP5 1 x264-NTb 1 1
Your Honor US S02E08 2160p PMTP WEB-DL DDP5 1 DV MKV x265-NTb 2 1
Your Honor US S02E08 2160p STAN WEB-DL x265 8bit SDR DDP5 1-NTb 0 0
Your Honor S02E08 MULTi 1080p WEBRip x264-S4LVE 1 2

Your Honor S02E08 - Part Eighteen

Summary:

Eugene escapes danger only to run headfirst into new jeopardy. Frustrated with Michael, Olivia sets her sights on an unlikely new mark. Big Mo's triumphant opening night takes an unexpected dark turn.



Your Honor US S02E08 2160p PMTP WEB-DL x265 10bit HDR10Plus DDP5 1 x265-NTb EZTV
Your Honor S2E8 Screenshot
General
Unique ID: 303401107680909294184469067292025967190 (0xE440ED873419A8E99505F1A52D965256)
Complete name: Your.Honor.US.S02E08.Part.Eighteen.2160p.PMTP.WEB-DL.DDP5.1.HDR.H.265-NTb.mkv
Format: Matroska
Format version: Version 4
File size: 5.20 GiB
Duration: 51 min 40 s
Overall bit rate: 14.4 Mb/s
Writing application: mkvmerge v74.0.0 ('You Oughta Know') 64-bit
Writing library: libebml v1.4.4 + libmatroska v1.7.1

Video
ID: 1
Format: HEVC
Format/Info: High Efficiency Video Coding
Format profile: Main 10@L5@Main
HDR format: SMPTE ST 2094 App 4, Version 1, HDR10+ Profile B compatible
Codec ID: V_MPEGH/ISO/HEVC
Duration: 51 min 40 s
Bit rate: 13.8 Mb/s
Width: 3 840 pixels
Height: 2 160 pixels
Display aspect ratio: 16:9
Frame rate mode: Constant
Frame rate: 23.976 (24000/1001) FPS
Color space: YUV
Chroma subsampling: 4:2:0 (Type 2)
Bit depth: 10 bits
Bits/(Pixel*Frame): 0.069
Stream size: 4.97 GiB (96%)
Default: Yes
Forced: No
Color range: Limited
Color primaries: BT.2020
Transfer characteristics: PQ
Matrix coefficients: BT.2020 non-constant
Mastering display color primaries: Display P3
Mastering display luminance: min: 0.0001 cd/m2, max: 1000 cd/m2
Maximum Content Light Level: 381 cd/m2
Maximum Frame-Average Light Level: 233 cd/m2

Audio
ID: 2
Format: E-AC-3
Format/Info: Enhanced AC-3
Commercial name: Dolby Digital Plus
Codec ID: A_EAC3
Duration: 51 min 39 s
Bit rate mode: Constant
Bit rate: 640 kb/s
Channel(s): 6 channels
Channel layout: L R C LFE Ls Rs
Sampling rate: 48.0 kHz
Frame rate: 31.250 FPS (1536 SPF)
Compression mode: Lossy
Stream size: 237 MiB (4%)
Language: English
Service kind: Complete Main
Default: Yes
Forced: No

Text #1
ID: 3
Format: UTF-8
Codec ID: S_TEXT/UTF8
Codec ID/Info: UTF-8 Plain Text
Duration: 50 min 11 s
Bit rate: 72 b/s
Frame rate: 0.293 FPS
Count of elements: 881
Stream size: 26.7 KiB (0%)
Language: English (US)
Default: No
Forced: No

Text #2
ID: 4
Format: UTF-8
Codec ID: S_TEXT/UTF8
Codec ID/Info: UTF-8 Plain Text
Duration: 50 min 53 s
Bit rate: 77 b/s
Frame rate: 0.318 FPS
Count of elements: 970
Stream size: 28.7 KiB (0%)
Title: SDH
Language: English (US)
Default: No
Forced: No

Menu
00:00:05.991: en:Scene 1
00:00:17.955: en:Scene 2
00:00:36.955: en:Scene 3
00:01:16.955: en:Scene 4
00:01:54.955: en:Scene 5
00:04:03.955: en:Scene 6
00:06:16.955: en:Scene 7
00:07:27.955: en:Scene 8
00:08:16.955: en:Scene 9
00:09:42.955: en:Scene 10
00:12:16.955: en:Scene 11
00:14:29.955: en:Scene 12
00:15:03.955: en:Scene 13
00:16:23.955: en:Scene 14
00:17:56.955: en:Scene 15
00:18:53.955: en:Scene 16
00:22:29.955: en:Scene 17
00:23:00.955: en:Scene 18
00:25:43.955: en:Scene 19
00:26:34.955: en:Scene 20
00:28:12.955: en:Scene 21
00:29:53.955: en:Scene 22
00:30:34.955: en:Scene 23
00:32:05.955: en:Scene 24
00:33:15.955: en:Scene 25
00:33:48.955: en:Scene 26
00:34:53.955: en:Scene 27
00:35:10.955: en:Scene 28
00:36:49.955: en:Scene 29
00:37:04.955: en:Scene 30
00:40:53.955: en:Scene 31
00:41:27.955: en:Scene 32
00:42:30.955: en:Scene 33
00:44:38.955: en:Scene 34
00:47:16.955: en:Scene 35
00:48:58.955: en:Scene 36
00:50:22.955: en:Scene 37
00:51:40.055: en:Scene 38
ssl  EZTV RSS EZTV Status | EZTV API | DMCA: [email protected]