eztvx.to | eztvstatus.org
Search title:  
TV Packs only
 

Your Honor US S02E08 Part Eighteen 1080p AMZN WEBRip DDP5 1 x264-NTb EZTV

Episode Breakdown
Your Honor
Your Honor TV Show S02E08

Season: 2
Episode: 8
Air Date: 3 March, 2023
Download Links
     Torrent Download     Magnet Download
     Anonymous Download
Added 1 year ago by eztv (verified).
Tracker Statistics
Seeds: 7
Peers: 0
Stats generated @ 03:12 on 25th Jul 2024
Torrent Info
Torrent File: Your.Honor.US.S02E08.Part.Eighteen.1080p.AMZN.WEB-DL.DDP5.1.H.264-NTb[eztv.re].mkv
Torrent Hash: 63C009653FEAB83C81E6F0F54C16785D1D6171ED
Filesize: 1.94 GB
Released: 3rd Mar 2023

File Format: MKV (Matroska)
Resolution: 1920x1080 px
Aspect Ratio: 16:9
Alternate Releases S L
Your Honor US S02E08 WEBRip x264-LAMA 3 0
Your Honor US S02E08 Part Eighteen 720p AMZN WEBRip DDP5 1 x264-NTb 1 0
Your Honor US S02E08 2160p PMTP WEB-DL DDP5 1 DV MKV x265-NTb 2 1
Your Honor US S02E08 2160p PMTP WEB-DL x265 10bit HDR10Plus DDP5 1 x265-NTb 1 0
Your Honor US S02E08 2160p STAN WEB-DL x265 8bit SDR DDP5 1-NTb 0 0
Your Honor S02E08 MULTi 1080p WEBRip x264-S4LVE 0 1

Your Honor S02E08 - Part Eighteen

Summary:

Eugene escapes danger only to run headfirst into new jeopardy. Frustrated with Michael, Olivia sets her sights on an unlikely new mark. Big Mo's triumphant opening night takes an unexpected dark turn.



Your Honor US S02E08 Part Eighteen 1080p AMZN WEBRip DDP5 1 x264-NTb EZTV
Your Honor S2E8 Screenshot
General
Unique ID: 76367752619120905188696363043030436772 (0x3973E4E75F7E839065DD35C8E79A0BA4)
Complete name: Your.Honor.US.S02E08.Part.Eighteen.1080p.AMZN.WEB-DL.DDP5.1.H.264-NTb.mkv
Format: Matroska
Format version: Version 4
File size: 1.94 GiB
Duration: 51 min 50 s
Overall bit rate: 5 355 kb/s
Writing application: mkvmerge v74.0.0 ('You Oughta Know') 64-bit
Writing library: libebml v1.4.4 + libmatroska v1.7.1

Video
ID: 1
Format: AVC
Format/Info: Advanced Video Codec
Format profile: High@L4
Format settings: CABAC / 4 Ref Frames
Format settings, CABAC: Yes
Format settings, Reference frames: 4 frames
Format settings, GOP: M=4, N=48
Codec ID: V_MPEG4/ISO/AVC
Duration: 51 min 50 s
Bit rate mode: Constant
Bit rate: 4 713 kb/s
Nominal bit rate: 10 000 kb/s
Width: 1 920 pixels
Height: 1 080 pixels
Display aspect ratio: 16:9
Frame rate mode: Constant
Frame rate: 23.976 (24000/1001) FPS
Color space: YUV
Chroma subsampling: 4:2:0
Bit depth: 8 bits
Scan type: Progressive
Bits/(Pixel*Frame): 0.095
Stream size: 1.71 GiB (88%)
Default: Yes
Forced: No
Color range: Limited
Color primaries: BT.709
Transfer characteristics: BT.709
Matrix coefficients: BT.709

Audio
ID: 2
Format: E-AC-3
Format/Info: Enhanced AC-3
Commercial name: Dolby Digital Plus
Codec ID: A_EAC3
Duration: 51 min 50 s
Bit rate mode: Constant
Bit rate: 640 kb/s
Channel(s): 6 channels
Channel layout: L R C LFE Ls Rs
Sampling rate: 48.0 kHz
Frame rate: 31.250 FPS (1536 SPF)
Compression mode: Lossy
Delay relative to video: 28 ms
Stream size: 237 MiB (12%)
Language: English (US)
Service kind: Complete Main
Default: Yes
Forced: No

Text #1
ID: 3
Format: UTF-8
Codec ID: S_TEXT/UTF8
Codec ID/Info: UTF-8 Plain Text
Duration: 50 min 7 s
Bit rate: 86 b/s
Frame rate: 0.294 FPS
Count of elements: 885
Stream size: 31.7 KiB (0%)
Language: English (US)
Default: No
Forced: No

Text #2
ID: 4
Format: UTF-8
Codec ID: S_TEXT/UTF8
Codec ID/Info: UTF-8 Plain Text
Duration: 50 min 7 s
Bit rate: 92 b/s
Frame rate: 0.313 FPS
Count of elements: 942
Stream size: 34.0 KiB (0%)
Title: SDH
Language: English (US)
Default: No
Forced: No

Menu
00:00:00.000: en:Scene 1
00:00:11.964: en:Scene 2
00:00:30.964: en:Scene 3
00:01:10.964: en:Scene 4
00:01:48.964: en:Scene 5
00:03:57.964: en:Scene 6
00:06:10.964: en:Scene 7
00:07:21.964: en:Scene 8
00:08:10.964: en:Scene 9
00:09:36.964: en:Scene 10
00:12:10.964: en:Scene 11
00:14:23.964: en:Scene 12
00:14:57.964: en:Scene 13
00:16:17.964: en:Scene 14
00:17:50.964: en:Scene 15
00:18:47.964: en:Scene 16
00:22:23.964: en:Scene 17
00:22:54.964: en:Scene 18
00:25:37.964: en:Scene 19
00:26:28.964: en:Scene 20
00:28:06.964: en:Scene 21
00:29:47.964: en:Scene 22
00:30:28.964: en:Scene 23
00:31:59.964: en:Scene 24
00:33:09.964: en:Scene 25
00:33:42.964: en:Scene 26
00:34:47.964: en:Scene 27
00:35:04.964: en:Scene 28
00:36:43.964: en:Scene 29
00:36:58.964: en:Scene 30
00:40:47.964: en:Scene 31
00:41:21.964: en:Scene 32
00:42:24.964: en:Scene 33
00:44:32.964: en:Scene 34
00:47:10.964: en:Scene 35
00:48:52.964: en:Scene 36
00:50:16.964: en:Scene 37
00:51:34.964: en:Scene 38
ssl  EZTV RSS EZTV Status | EZTV API | DMCA: [email protected]