eztvx.to | eztvstatus.org
Search title:  
TV Packs only
 

Your Honor US S02E08 WEBRip x264-LAMA EZTV

Episode Breakdown
Your Honor
Your Honor TV Show S02E08

Season: 2
Episode: 8
Air Date: 3 March, 2023
Download Links
     Torrent Download     Magnet Download
     Anonymous Download
Added 1 year ago by eztv (verified).
Tracker Statistics
Seeds: 5
Peers: 0
Stats generated @ 09:40 on 18th Apr 2024
Torrent Info
Torrent File: Your.Honor.US.S02E08.WEBRip.x264-LAMA[eztv.re].mp4
Torrent Hash: 91D2BA1230D53AEA17A6E51D1664639234DC4282
Filesize: 505 MB
Released: 3rd Mar 2023

File Format: MP4 (MPEG-4)
Resolution: 720x404 px
Aspect Ratio: 16:9
Alternate Releases S L
Your Honor US S02E08 Part Eighteen 1080p AMZN WEBRip DDP5 1 x264-NTb 3 1
Your Honor US S02E08 Part Eighteen 720p AMZN WEBRip DDP5 1 x264-NTb 1 1
Your Honor US S02E08 2160p PMTP WEB-DL DDP5 1 DV MKV x265-NTb 2 1
Your Honor US S02E08 2160p PMTP WEB-DL x265 10bit HDR10Plus DDP5 1 x265-NTb 2 0
Your Honor US S02E08 2160p STAN WEB-DL x265 8bit SDR DDP5 1-NTb 0 0
Your Honor S02E08 MULTi 1080p WEBRip x264-S4LVE 1 2

Your Honor S02E08 - Part Eighteen

Summary:

Eugene escapes danger only to run headfirst into new jeopardy. Frustrated with Michael, Olivia sets her sights on an unlikely new mark. Big Mo's triumphant opening night takes an unexpected dark turn.



Your Honor US S02E08 WEBRip x264-LAMA EZTV
Your Honor S2E8 Screenshot
General
Complete name: Your.Honor.US.S02E08.WEBRip.x264-LAMA.mp4
Format: MPEG-4
Format profile: Base Media
Codec ID: isom (isom/iso2/avc1/mp41)
File size: 505 MiB
Duration: 51 min 52 s
Overall bit rate: 1 362 kb/s
Encoded date: UTC 2023-03-03 05:11:35
Tagged date: UTC 2023-03-03 05:11:35

Video
ID: 1
Format: AVC
Format/Info: Advanced Video Codec
Format profile: [email protected]
Format settings: CABAC / 5 Ref Frames
Format settings, CABAC: Yes
Format settings, Reference frames: 5 frames
Codec ID: avc1
Codec ID/Info: Advanced Video Coding
Duration: 51 min 52 s
Bit rate: 1 100 kb/s
Width: 720 pixels
Height: 400 pixels
Display aspect ratio: 16:9
Frame rate mode: Constant
Frame rate: 23.976 (24000/1001) FPS
Color space: YUV
Chroma subsampling: 4:2:0
Bit depth: 8 bits
Scan type: Progressive
Bits/(Pixel*Frame): 0.159
Stream size: 408 MiB (81%)
Title: - Your.Honor.US.S02E08.WEBRip.x264-LAMA
Writing library: x264 core 152
Encoding settings: cabac=1 / ref=5 / deblock=1:-1:-1 / analyse=0x3:0x113 / me=umh / subme=9 / psy=1 / psy_rd=1.00:0.15 / mixed_ref=1 / me_range=16 / chroma_me=1 / trellis=2 / 8x8dct=1 / cqm=0 / deadzone=21,11 / fast_pskip=1 / chroma_qp_offset=-3 / threads=12 / lookahead_threads=1 / sliced_threads=0 / nr=0 / decimate=1 / interlaced=0 / bluray_compat=0 / constrained_intra=0 / bframes=3 / b_pyramid=2 / b_adapt=2 / b_bias=0 / direct=3 / weightb=1 / open_gop=0 / weightp=2 / keyint=250 / keyint_min=23 / scenecut=40 / intra_refresh=0 / rc_lookahead=50 / rc=abr / mbtree=1 / bitrate=1100 / ratetol=1.0 / qcomp=0.60 / qpmin=0 / qpmax=69 / qpstep=4 / ip_ratio=1.40 / aq=1:1.00
Encoded date: UTC 2023-03-03 05:11:35
Tagged date: UTC 2023-03-03 05:11:35
Codec configuration box: avcC

Audio
ID: 2
Format: AAC LC
Format/Info: Advanced Audio Codec Low Complexity
Codec ID: mp4a-40-2
Duration: 51 min 52 s
Duration_LastFrame: -11 ms
Bit rate mode: Constant
Bit rate: 256 kb/s
Channel(s): 2 channels
Channel layout: L R
Sampling rate: 48.0 kHz
Frame rate: 46.875 FPS (1024 SPF)
Compression mode: Lossy
Stream size: 95.0 MiB (19%)
Title: - Your.Honor.US.S02E08.WEBRip.x264-LAMA
Language: English
Default: Yes
Alternate group: 1
Encoded date: UTC 2023-03-03 05:11:35
Tagged date: UTC 2023-03-03 05:11:35
ssl  EZTV RSS EZTV Status | EZTV API | DMCA: [email protected]