eztvx.to | eztvstatus.org
Search title:  
TV Packs only
 

The Last Of Us S01E07 2160p CRAV WEB-DL DDP5 1 Atmos x265-NTb EZTV

Episode Breakdown
The Last of Us
The Last of Us TV Show S01E07

Season: 1
Episode: 7
Air Date: 26 February, 2023
Download Links
     Torrent Download     Magnet Download
     Anonymous Download
Added 11 months ago by eztv (verified).
Tracker Statistics
Seeds: 2
Peers: 0
Stats generated @ 17:01 on 27th Feb 2024
Torrent Info
Torrent File: The.Last.of.Us.S01E07.Left.Behind.2160p.CRAV.WEB-DL.DDP5.1.HEVC-NTb[eztv.re].mkv
Torrent Hash: 8FD7CE42E81667A91A86FE2B61E6A52B1FB720DE
Filesize: 5.53 GB
Released: 27th Feb 2023

File Format: MKV (Matroska)
Resolution: 720x404 px
Aspect Ratio: 16:9
Alternate Releases S L
The Last of Us S01E07 720p WEB h264-KOGi 12 2
The Last of Us S01E07 1080p WEB H264-CAKES 203 26
The Last of Us S01E07 480p x264-mSD 9 1
The Last of Us S01E07 720p HEVC x265-MeGusta 14 4
The Last of Us S01E07 XviD-AFG 10 0
The Last of Us S01E07 1080p HEVC x265-MeGusta 157 32
The Last of Us S01E07 Left Behind 2160p HMAX WEB-DL DDP5 1 HDR x265-NTb 33 2

The Last of Us S01E07 - Left Behind

Summary:

As Joel fights to survive, Ellie looks back on the night that changed everything.



The Last Of Us S01E07 2160p CRAV WEB-DL DDP5 1 Atmos x265-NTb EZTV
The Last of Us S1E7 Screenshot
General
Unique ID: 36361552314172612219136281540608662821 (0x1B5AFAF12E48432B575F9EDFF6781D25)
Complete name: The.Last.of.Us.S01E07.Left.Behind.2160p.CRAV.WEB-DL.DDP5.1.HEVC-NTb.mkv
Format: Matroska
Format version: Version 4
File size: 5.53 GiB
Duration: 55 min 19 s
Overall bit rate: 14.3 Mb/s
Writing application: mkvmerge v69.0.0 ('Day And Age') 64-bit
Writing library: libebml v1.4.2 + libmatroska v1.6.4

Video
ID: 1
Format: HEVC
Format/Info: High Efficiency Video Coding
Format profile: Main 10@L5@High
Codec ID: V_MPEGH/ISO/HEVC
Duration: 55 min 19 s
Bit rate: 13.5 Mb/s
Width: 3 840 pixels
Height: 2 160 pixels
Display aspect ratio: 16:9
Frame rate mode: Constant
Frame rate: 23.976 (24000/1001) FPS
Color space: YUV
Chroma subsampling: 4:2:0
Bit depth: 10 bits
Bits/(Pixel*Frame): 0.068
Stream size: 5.23 GiB (95%)
Default: Yes
Forced: No
Color range: Limited
Color primaries: BT.709
Transfer characteristics: BT.709
Matrix coefficients: BT.709

Audio
ID: 4
Format: E-AC-3 JOC
Format/Info: Enhanced AC-3 with Joint Object Coding
Commercial name: Dolby Digital Plus with Dolby Atmos
Codec ID: A_EAC3
Duration: 55 min 19 s
Bit rate mode: Constant
Bit rate: 768 kb/s
Channel(s): 6 channels
Channel layout: L R C LFE Ls Rs
Sampling rate: 48.0 kHz
Frame rate: 31.250 FPS (1536 SPF)
Compression mode: Lossy
Stream size: 304 MiB (5%)
Language: English
Service kind: Complete Main
Default: Yes
Forced: No
Complexity index: 16
Number of dynamic objects: 15
Bed channel count: 1 channel
Bed channel configuration: LFE

Text #1
ID: 5
Format: UTF-8
Codec ID: S_TEXT/UTF8
Codec ID/Info: UTF-8 Plain Text
Duration: 51 min 53 s
Bit rate: 44 b/s
Frame rate: 0.192 FPS
Count of elements: 597
Stream size: 16.9 KiB (0%)
Language: English (US)
Default: No
Forced: No

Text #2
ID: 6
Format: UTF-8
Codec ID: S_TEXT/UTF8
Codec ID/Info: UTF-8 Plain Text
Duration: 54 min 40 s
Bit rate: 56 b/s
Frame rate: 0.241 FPS
Count of elements: 790
Stream size: 22.5 KiB (0%)
Title: SDH
Language: English (US)
Default: No
Forced: No

Text #3
ID: 7
Format: UTF-8
Codec ID: S_TEXT/UTF8
Codec ID/Info: UTF-8 Plain Text
Duration: 53 min 4 s
Bit rate: 64 b/s
Frame rate: 0.202 FPS
Count of elements: 642
Stream size: 25.2 KiB (0%)
Language: Bulgarian (BG)
Default: No
Forced: No

Text #4
ID: 8
Format: UTF-8
Codec ID: S_TEXT/UTF8
Codec ID/Info: UTF-8 Plain Text
Duration: 53 min 4 s
Bit rate: 39 b/s
Frame rate: 0.201 FPS
Count of elements: 639
Stream size: 15.5 KiB (0%)
Language: Czech (CZ)
Default: No
Forced: No

Text #5
ID: 9
Format: UTF-8
Codec ID: S_TEXT/UTF8
Codec ID/Info: UTF-8 Plain Text
Duration: 53 min 4 s
Bit rate: 40 b/s
Frame rate: 0.199 FPS
Count of elements: 633
Stream size: 15.6 KiB (0%)
Language: Danish (DK)
Default: No
Forced: No

Text #6
ID: 10
Format: UTF-8
Codec ID: S_TEXT/UTF8
Codec ID/Info: UTF-8 Plain Text
Duration: 53 min 4 s
Bit rate: 67 b/s
Frame rate: 0.200 FPS
Count of elements: 638
Stream size: 26.2 KiB (0%)
Language: Greek (GR)
Default: No
Forced: No

Text #7
ID: 11
Format: UTF-8
Codec ID: S_TEXT/UTF8
Codec ID/Info: UTF-8 Plain Text
Duration: 53 min 4 s
Bit rate: 38 b/s
Frame rate: 0.200 FPS
Count of elements: 636
Stream size: 15.1 KiB (0%)
Title: Spanish (Latin America)
Language: Spanish (Latin America)
Default: No
Forced: No

Text #8
ID: 12
Format: UTF-8
Codec ID: S_TEXT/UTF8
Codec ID/Info: UTF-8 Plain Text
Duration: 51 min 53 s
Bit rate: 48 b/s
Frame rate: 0.182 FPS
Count of elements: 566
Stream size: 18.3 KiB (0%)
Title: Spanish (Spain)
Language: Spanish (ES)
Default: No
Forced: No

Text #9
ID: 13
Format: UTF-8
Codec ID: S_TEXT/UTF8
Codec ID/Info: UTF-8 Plain Text
Duration: 53 min 4 s
Bit rate: 43 b/s
Frame rate: 0.201 FPS
Count of elements: 639
Stream size: 17.1 KiB (0%)
Language: Estonian (EE)
Default: No
Forced: No

Text #10
ID: 14
Format: UTF-8
Codec ID: S_TEXT/UTF8
Codec ID/Info: UTF-8 Plain Text
Duration: 53 min 4 s
Bit rate: 42 b/s
Frame rate: 0.199 FPS
Count of elements: 635
Stream size: 16.4 KiB (0%)
Language: Finnish (FI)
Default: No
Forced: No

Text #11
ID: 15
Format: UTF-8
Codec ID: S_TEXT/UTF8
Codec ID/Info: UTF-8 Plain Text
Duration: 53 min 4 s
Bit rate: 39 b/s
Frame rate: 0.200 FPS
Count of elements: 636
Stream size: 15.2 KiB (0%)
Language: Croatian (HR)
Default: No
Forced: No

Text #12
ID: 16
Format: UTF-8
Codec ID: S_TEXT/UTF8
Codec ID/Info: UTF-8 Plain Text
Duration: 53 min 4 s
Bit rate: 39 b/s
Frame rate: 0.200 FPS
Count of elements: 637
Stream size: 15.5 KiB (0%)
Language: Hungarian (HU)
Default: No
Forced: No

Text #13
ID: 17
Format: UTF-8
Codec ID: S_TEXT/UTF8
Codec ID/Info: UTF-8 Plain Text
Duration: 53 min 4 s
Bit rate: 47 b/s
Frame rate: 0.199 FPS
Count of elements: 634
Stream size: 18.5 KiB (0%)
Language: Icelandic (IS)
Default: No
Forced: No

Text #14
ID: 18
Format: UTF-8
Codec ID: S_TEXT/UTF8
Codec ID/Info: UTF-8 Plain Text
Duration: 53 min 4 s
Bit rate: 40 b/s
Frame rate: 0.200 FPS
Count of elements: 636
Stream size: 15.6 KiB (0%)
Language: Lithuanian (LT)
Default: No
Forced: No

Text #15
ID: 19
Format: UTF-8
Codec ID: S_TEXT/UTF8
Codec ID/Info: UTF-8 Plain Text
Duration: 53 min 4 s
Bit rate: 42 b/s
Frame rate: 0.201 FPS
Count of elements: 639
Stream size: 16.5 KiB (0%)
Language: Latvian (LV)
Default: No
Forced: No

Text #16
ID: 20
Format: UTF-8
Codec ID: S_TEXT/UTF8
Codec ID/Info: UTF-8 Plain Text
Duration: 53 min 4 s
Bit rate: 71 b/s
Frame rate: 0.201 FPS
Count of elements: 641
Stream size: 27.7 KiB (0%)
Language: Macedonian (MK)
Default: No
Forced: No

Text #17
ID: 21
Format: UTF-8
Codec ID: S_TEXT/UTF8
Codec ID/Info: UTF-8 Plain Text
Duration: 53 min 4 s
Bit rate: 35 b/s
Frame rate: 0.188 FPS
Count of elements: 598
Stream size: 13.8 KiB (0%)
Language: Dutch (NL)
Default: No
Forced: No

Text #18
ID: 22
Format: UTF-8
Codec ID: S_TEXT/UTF8
Codec ID/Info: UTF-8 Plain Text
Duration: 53 min 4 s
Bit rate: 40 b/s
Frame rate: 0.198 FPS
Count of elements: 632
Stream size: 15.8 KiB (0%)
Language: Norwegian (NO)
Default: No
Forced: No

Text #19
ID: 23
Format: UTF-8
Codec ID: S_TEXT/UTF8
Codec ID/Info: UTF-8 Plain Text
Duration: 53 min 4 s
Bit rate: 35 b/s
Frame rate: 0.200 FPS
Count of elements: 636
Stream size: 13.9 KiB (0%)
Language: Polish (PL)
Default: No
Forced: No

Text #20
ID: 24
Format: UTF-8
Codec ID: S_TEXT/UTF8
Codec ID/Info: UTF-8 Plain Text
Duration: 53 min 4 s
Bit rate: 36 b/s
Frame rate: 0.199 FPS
Count of elements: 635
Stream size: 14.2 KiB (0%)
Title: Portuguese (Brazil)
Language: Portuguese (BR)
Default: No
Forced: No

Text #21
ID: 25
Format: UTF-8
Codec ID: S_TEXT/UTF8
Codec ID/Info: UTF-8 Plain Text
Duration: 53 min 4 s
Bit rate: 41 b/s
Frame rate: 0.200 FPS
Count of elements: 638
Stream size: 16.2 KiB (0%)
Title: Portuguese (Portugal)
Language: Portuguese (PT)
Default: No
Forced: No

Text #22
ID: 26
Format: UTF-8
Codec ID: S_TEXT/UTF8
Codec ID/Info: UTF-8 Plain Text
Duration: 53 min 4 s
Bit rate: 44 b/s
Frame rate: 0.199 FPS
Count of elements: 635
Stream size: 17.1 KiB (0%)
Language: Romanian (RO)
Default: No
Forced: No

Text #23
ID: 27
Format: UTF-8
Codec ID: S_TEXT/UTF8
Codec ID/Info: UTF-8 Plain Text
Duration: 54 min 3 s
Bit rate: 65 b/s
Frame rate: 0.198 FPS
Count of elements: 641
Stream size: 25.8 KiB (0%)
Language: Russian (RU)
Default: No
Forced: No

Text #24
ID: 28
Format: UTF-8
Codec ID: S_TEXT/UTF8
Codec ID/Info: UTF-8 Plain Text
Duration: 53 min 4 s
Bit rate: 40 b/s
Frame rate: 0.199 FPS
Count of elements: 634
Stream size: 15.7 KiB (0%)
Language: Slovak (SK)
Default: No
Forced: No

Text #25
ID: 29
Format: UTF-8
Codec ID: S_TEXT/UTF8
Codec ID/Info: UTF-8 Plain Text
Duration: 53 min 4 s
Bit rate: 38 b/s
Frame rate: 0.200 FPS
Count of elements: 638
Stream size: 14.9 KiB (0%)
Language: Slovenian (SI)
Default: No
Forced: No

Text #26
ID: 30
Format: UTF-8
Codec ID: S_TEXT/UTF8
Codec ID/Info: UTF-8 Plain Text
Duration: 53 min 4 s
Bit rate: 41 b/s
Frame rate: 0.200 FPS
Count of elements: 636
Stream size: 16.2 KiB (0%)
Language: Serbian-Latn-RS
Default: No
Forced: No

Text #27
ID: 31
Format: UTF-8
Codec ID: S_TEXT/UTF8
Codec ID/Info: UTF-8 Plain Text
Duration: 53 min 4 s
Bit rate: 37 b/s
Frame rate: 0.198 FPS
Count of elements: 629
Stream size: 14.7 KiB (0%)
Language: Swedish (SE)
Default: No
Forced: No

Text #28
ID: 32
Format: UTF-8
Codec ID: S_TEXT/UTF8
Codec ID/Info: UTF-8 Plain Text
Duration: 53 min 4 s
Bit rate: 42 b/s
Frame rate: 0.200 FPS
Count of elements: 638
Stream size: 16.7 KiB (0%)
Language: Turkish (TR)
Default: No
Forced: No

Menu
00:00:00.000: Chapter 1
00:54:16.970: Credits
ssl  EZTV RSS EZTV Status | EZTV API | DMCA: [email protected]