eztvx.to | eztvstatus.org
Search title:  
TV Packs only
 

Your Honor US S02E07 2160p STAN WEB-DL x265 8bit SDR DDP5 1-NTb EZTV

Episode Breakdown
Your Honor
Your Honor TV Show S02E07

Season: 2
Episode: 7
Air Date: 24 February, 2023
Download Links
     Torrent Download     Magnet Download
     Anonymous Download
Added 1 year ago by eztv (verified).
Tracker Statistics
Seeds: 0
Peers: 0
Stats generated @ 12:08 on 15th Apr 2024
Torrent Info
Torrent File: Your.Honor.US.S02E07.Part.Seventeen.2160p.STAN.WEB-DL.DDP5.1.H.265-NTb[eztv.re].mkv
Torrent Hash: A014D1E4EC076DDD443AF1B697625A474B956D10
Filesize: 5.40 GB
Released: 24th Feb 2023

File Format: MKV (Matroska)
Resolution: 720x404 px
Aspect Ratio: 16:9
Alternate Releases S L
Your Honor S02E07 1080p WEB H264-CAKES 6 0
Your Honor S02E07 1080p HEVC x265-MeGusta 3 0
Your Honor US S02E07 Part Seventeen 720p AMZN WEBRip DDP5 1 x264-NTb 3 0
Your Honor US S02E07 Part Seventeen 1080p AMZN WEBRip DDP5 1 x264-NTb 1 0
Your Honor S02E07 XviD-AFG 1 0
Your Honor US S02E07 2160p PMTP WEB-DL x265 10bit HDR10Plus DDP5 1 x265-NTb 1 0
Your Honor US S02E07 2160p PMTP WEB-DL DDP5 1 DV MKV x265-NTb 2 1

Your Honor S02E07 - Part Seventeen

Summary:

Michael's pursuit of the truth creates life-threatening consequences for him and for Nancy Costello, who has joined him in the hunt for his wife Robin's murderer. Fia faces the hard reality about her family.



Your Honor US S02E07 2160p STAN WEB-DL x265 8bit SDR DDP5 1-NTb EZTV
Your Honor S2E7 Screenshot
General
Unique ID: 159603574729852402760315844123947746819 (0x781287C701A43D3058C943A5306CC603)
Complete name: Your.Honor.US.S02E07.Part.Seventeen.2160p.STAN.WEB-DL.DDP5.1.H.265-NTb.mkv
Format: Matroska
Format version: Version 4
File size: 5.40 GiB
Duration: 55 min 49 s
Overall bit rate: 13.9 Mb/s
Writing application: mkvmerge v74.0.0 ('You Oughta Know') 64-bit
Writing library: libebml v1.4.4 + libmatroska v1.7.1

Video
ID: 1
Format: HEVC
Format/Info: High Efficiency Video Coding
Format profile: Main@L5@High
Codec ID: V_MPEGH/ISO/HEVC
Duration: 55 min 38 s
Bit rate: 13.3 Mb/s
Width: 3 840 pixels
Height: 2 026 pixels
Display aspect ratio: 1.895
Frame rate mode: Constant
Frame rate: 23.976 (24000/1001) FPS
Color space: YUV
Chroma subsampling: 4:2:0
Bit depth: 8 bits
Bits/(Pixel*Frame): 0.071
Stream size: 5.15 GiB (95%)
Default: Yes
Forced: No
Color range: Limited
Color primaries: BT.709
Transfer characteristics: BT.709
Matrix coefficients: BT.709

Audio
ID: 2
Format: E-AC-3
Format/Info: Enhanced AC-3
Commercial name: Dolby Digital Plus
Codec ID: A_EAC3
Duration: 55 min 49 s
Bit rate mode: Constant
Bit rate: 640 kb/s
Channel(s): 6 channels
Channel layout: L R C LFE Ls Rs
Sampling rate: 48.0 kHz
Frame rate: 31.250 FPS (1536 SPF)
Compression mode: Lossy
Stream size: 256 MiB (5%)
Language: English
Service kind: Complete Main
Default: Yes
Forced: No

Text #1
ID: 3
Format: UTF-8
Codec ID: S_TEXT/UTF8
Codec ID/Info: UTF-8 Plain Text
Duration: 54 min 2 s
Bit rate: 55 b/s
Frame rate: 0.247 FPS
Count of elements: 801
Stream size: 21.9 KiB (0%)
Language: English
Default: No
Forced: No

Text #2
ID: 4
Format: UTF-8
Codec ID: S_TEXT/UTF8
Codec ID/Info: UTF-8 Plain Text
Duration: 55 min 20 s
Bit rate: 63 b/s
Frame rate: 0.292 FPS
Count of elements: 970
Stream size: 25.8 KiB (0%)
Title: SDH
Language: English
Default: No
Forced: No

Menu
00:00:03.000: Recap
00:02:21.000: Chapter 1
00:54:19.000: Credits
ssl  EZTV RSS EZTV Status | EZTV API | DMCA: [email protected]