eztvx.to | eztvstatus.org
Search title:  
TV Packs only
 

Your Honor US S02E07 Part Seventeen 1080p AMZN WEBRip DDP5 1 x264-NTb EZTV

Episode Breakdown
Your Honor
Your Honor TV Show S02E07

Season: 2
Episode: 7
Air Date: 24 February, 2023
Download Links
     Torrent Download     Magnet Download
     Anonymous Download
Added 11 months ago by eztv (verified).
Tracker Statistics
Seeds: 1
Peers: 1
Stats generated @ 02:48 on 21st Feb 2024
Torrent Info
Torrent File: Your.Honor.US.S02E07.Part.Seventeen.1080p.AMZN.WEB-DL.DDP5.1.H.264-NTb[eztv.re].mkv
Torrent Hash: 6F526AEC3FA6F3E75FF59D28E09978943A75F941
Filesize: 1.84 GB
Released: 24th Feb 2023

File Format: MKV (Matroska)
Resolution: 1920x1080 px
Aspect Ratio: 16:9
Alternate Releases S L
Your Honor S02E07 1080p WEB H264-CAKES 7 0
Your Honor S02E07 1080p HEVC x265-MeGusta 6 0
Your Honor US S02E07 Part Seventeen 720p AMZN WEBRip DDP5 1 x264-NTb 4 0
Your Honor S02E07 XviD-AFG 0 0
Your Honor US S02E07 2160p STAN WEB-DL x265 8bit SDR DDP5 1-NTb 0 0
Your Honor US S02E07 2160p PMTP WEB-DL x265 10bit HDR10Plus DDP5 1 x265-NTb 1 0
Your Honor US S02E07 2160p PMTP WEB-DL DDP5 1 DV MKV x265-NTb 10 0

Your Honor S02E07 - Part Seventeen

Summary:

Michael's pursuit of the truth creates life-threatening consequences for him and for Nancy Costello, who has joined him in the hunt for his wife Robin's murderer. Fia faces the hard reality about her family.



Your Honor US S02E07 Part Seventeen 1080p AMZN WEBRip DDP5 1 x264-NTb EZTV
Your Honor S2E7 Screenshot
General
Unique ID: 123244427885522580689886559236900159712 (0x5CB8036F1F9E037D352955C8BC6A80E0)
Complete name: Your.Honor.US.S02E07.Part.Seventeen.1080p.AMZN.WEB-DL.DDP5.1.H.264-NTb.mkv
Format: Matroska
Format version: Version 4
File size: 1.84 GiB
Duration: 55 min 49 s
Overall bit rate: 4 725 kb/s
Writing application: mkvmerge v74.0.0 ('You Oughta Know') 64-bit
Writing library: libebml v1.4.4 + libmatroska v1.7.1

Video
ID: 1
Format: AVC
Format/Info: Advanced Video Codec
Format profile: High@L4
Format settings: CABAC / 4 Ref Frames
Format settings, CABAC: Yes
Format settings, Reference frames: 4 frames
Codec ID: V_MPEG4/ISO/AVC
Duration: 55 min 49 s
Bit rate mode: Constant
Bit rate: 4 083 kb/s
Nominal bit rate: 10 000 kb/s
Width: 1 920 pixels
Height: 1 080 pixels
Display aspect ratio: 16:9
Frame rate mode: Constant
Frame rate: 23.976 (24000/1001) FPS
Color space: YUV
Chroma subsampling: 4:2:0
Bit depth: 8 bits
Scan type: Progressive
Bits/(Pixel*Frame): 0.082
Stream size: 1.59 GiB (86%)
Default: Yes
Forced: No
Color range: Limited
Color primaries: BT.709
Transfer characteristics: BT.709
Matrix coefficients: BT.709

Audio
ID: 2
Format: E-AC-3
Format/Info: Enhanced AC-3
Commercial name: Dolby Digital Plus
Codec ID: A_EAC3
Duration: 55 min 49 s
Bit rate mode: Constant
Bit rate: 640 kb/s
Channel(s): 6 channels
Channel layout: L R C LFE Ls Rs
Sampling rate: 48.0 kHz
Frame rate: 31.250 FPS (1536 SPF)
Compression mode: Lossy
Delay relative to video: 18 ms
Stream size: 256 MiB (14%)
Language: English (US)
Service kind: Complete Main
Default: Yes
Forced: No

Text #1
ID: 3
Format: UTF-8
Codec ID: S_TEXT/UTF8
Codec ID/Info: UTF-8 Plain Text
Duration: 54 min 1 s
Bit rate: 67 b/s
Frame rate: 0.248 FPS
Count of elements: 805
Stream size: 26.7 KiB (0%)
Language: English (US)
Default: No
Forced: No

Text #2
ID: 4
Format: UTF-8
Codec ID: S_TEXT/UTF8
Codec ID/Info: UTF-8 Plain Text
Duration: 54 min 1 s
Bit rate: 79 b/s
Frame rate: 0.295 FPS
Count of elements: 955
Stream size: 31.5 KiB (0%)
Title: SDH
Language: English (US)
Default: No
Forced: No

Menu
00:00:00.000: en:Scene 1
00:00:09.970: en:Scene 2
00:00:28.970: en:Scene 3
00:01:09.970: en:Scene 4
00:01:27.970: en:Scene 5
00:02:20.970: en:Scene 6
00:03:41.970: en:Scene 7
00:05:03.970: en:Scene 8
00:06:01.970: en:Scene 9
00:06:38.970: en:Scene 10
00:08:15.970: en:Scene 11
00:08:53.970: en:Scene 12
00:09:31.970: en:Scene 13
00:10:11.970: en:Scene 14
00:11:39.970: en:Scene 15
00:12:14.970: en:Scene 16
00:14:43.970: en:Scene 17
00:15:28.970: en:Scene 18
00:16:13.970: en:Scene 19
00:16:28.970: en:Scene 20
00:18:07.970: en:Scene 21
00:19:02.970: en:Scene 22
00:20:21.970: en:Scene 23
00:22:23.970: en:Scene 24
00:23:30.970: en:Scene 25
00:24:14.970: en:Scene 26
00:24:59.970: en:Scene 27
00:25:43.970: en:Scene 28
00:26:09.970: en:Scene 29
00:26:47.970: en:Scene 30
00:28:31.970: en:Scene 31
00:29:18.970: en:Scene 32
00:30:14.970: en:Scene 33
00:31:37.970: en:Scene 34
00:33:31.970: en:Scene 35
00:34:26.970: en:Scene 36
00:34:59.970: en:Scene 37
00:35:52.970: en:Scene 38
00:36:15.970: en:Scene 39
00:36:43.970: en:Scene 40
00:37:53.970: en:Scene 41
00:38:40.970: en:Scene 42
00:39:30.970: en:Scene 43
00:40:06.970: en:Scene 44
00:42:49.970: en:Scene 45
00:44:06.970: en:Scene 46
00:44:35.970: en:Scene 47
00:45:10.970: en:Scene 48
00:46:49.970: en:Scene 49
00:47:43.970: en:Scene 50
00:48:18.970: en:Scene 51
00:49:06.970: en:Scene 52
00:49:59.970: en:Scene 53
00:50:36.970: en:Scene 54
00:52:23.970: en:Scene 55
00:53:23.970: en:Scene 56
00:54:18.970: en:Scene 57
00:55:33.970: en:Scene 58
ssl  EZTV RSS EZTV Status | EZTV API | DMCA: [email protected]