eztvx.to | eztvstatus.org
Search title:  
TV Packs only
 

Your Honor US S02E06 2160p PMTP WEB-DL DDP5 1 DV MKV x265-NTb EZTV

Episode Breakdown
Your Honor
Your Honor TV Show S02E06

Season: 2
Episode: 6
Air Date: 17 February, 2023
Download Links
     Torrent Download     Magnet Download
     Anonymous Download
Added 1 year ago by eztv (verified).
Tracker Statistics
Seeds: 1
Peers: 1
Stats generated @ 21:19 on 15th Apr 2024
Torrent Info
Torrent File: Your.Honor.US.S02E06.Part.Sixteen.2160p.PMTP.WEB-DL.DDP5.1.DoVi.H.265-NTb[eztv.re].mkv
Torrent Hash: 1F89BE495209BE1A34EDF51D773D0DA293C85A25
Filesize: 5.50 GB
Released: 17th Feb 2023

File Format: MKV (Matroska)
Resolution: 720x404 px
Aspect Ratio: 16:9
Alternate Releases S L
Your Honor S02E06 1080p WEB H264-GGEZ 3 1
Your Honor US S02E06 Part Sixteen 720p AMZN WEBRip DDP5 1 x264-NTb 1 0
Your Honor S02E06 XviD-AFG 0 0
Your Honor US S02E06 Part Sixteen 1080p AMZN WEBRip DDP5 1 x264-NTb 0 0
Your Honor US S02E06 2160p PMTP WEB-DL x265 10bit HDR10Plus DDP5 1 x265-NTb 0 0
Your Honor S02E06 480p x264-mSD 0 0
Your Honor S02E06 1080p HEVC x265-MeGusta 5 0

Your Honor S02E06 - Part Sixteen

Summary:

Michael and Elizabeth pursue a lead in Robin's murder case; the Baxters make arrangements to silence Eugene; pushed by Gina and Carmine, Jimmy enters into a dangerous alliance; an overdose causes a major rift with the trusted lieutenants of Big Mo.



Your Honor US S02E06 2160p PMTP WEB-DL DDP5 1 DV MKV x265-NTb EZTV
Your Honor S2E6 Screenshot
General
Unique ID: 65388066526434693007850813756314954117 (0x313148959C725FBA404CB6C3E0072985)
Complete name: Your.Honor.US.S02E06.Part.Sixteen.2160p.PMTP.WEB-DL.DDP5.1.DoVi.H.265-NTb.mkv
Format: Matroska
Format version: Version 4
File size: 5.50 GiB
Duration: 53 min 53 s
Overall bit rate: 14.6 Mb/s
Writing application: mkvmerge v73.0.0 ('25 or 6 to 4') 64-bit
Writing library: libebml v1.4.4 + libmatroska v1.7.1

Video
ID: 1
Format: HEVC
Format/Info: High Efficiency Video Coding
Format profile: Main 10@L5@Main
HDR format: Dolby Vision, Version 1.0, dvhe.05.06, BL+RPU
Codec ID: V_MPEGH/ISO/HEVC
Duration: 53 min 33 s
Bit rate: 14.1 Mb/s
Width: 3 840 pixels
Height: 2 160 pixels
Display aspect ratio: 16:9
Frame rate mode: Constant
Frame rate: 23.976 (24000/1001) FPS
Color space: YUV
Chroma subsampling: 4:2:0 (Type 0)
Bit depth: 10 bits
Bits/(Pixel*Frame): 0.071
Stream size: 5.26 GiB (96%)
Default: Yes
Forced: No
Color range: Full

Audio
ID: 2
Format: E-AC-3
Format/Info: Enhanced AC-3
Commercial name: Dolby Digital Plus
Codec ID: A_EAC3
Duration: 53 min 53 s
Bit rate mode: Constant
Bit rate: 640 kb/s
Channel(s): 6 channels
Channel layout: L R C LFE Ls Rs
Sampling rate: 48.0 kHz
Frame rate: 31.250 FPS (1536 SPF)
Compression mode: Lossy
Stream size: 247 MiB (4%)
Language: English
Service kind: Complete Main
Default: Yes
Forced: No

Text #1
ID: 3
Format: UTF-8
Codec ID: S_TEXT/UTF8
Codec ID/Info: UTF-8 Plain Text
Duration: 52 min 10 s
Bit rate: 60 b/s
Frame rate: 0.253 FPS
Count of elements: 793
Stream size: 23.2 KiB (0%)
Language: English (US)
Default: No
Forced: No

Text #2
ID: 4
Format: UTF-8
Codec ID: S_TEXT/UTF8
Codec ID/Info: UTF-8 Plain Text
Duration: 52 min 43 s
Bit rate: 64 b/s
Frame rate: 0.283 FPS
Count of elements: 894
Stream size: 25.1 KiB (0%)
Title: SDH
Language: English (US)
Default: No
Forced: No
ssl  EZTV RSS EZTV Status | EZTV API | DMCA: [email protected]