eztvx.to | eztvstatus.org
Search title:  
TV Packs only
 

Your Honor US S02E06 2160p PMTP WEB-DL x265 10bit HDR10Plus DDP5 1 x265-NTb EZTV

Episode Breakdown
Your Honor
Your Honor TV Show S02E06

Season: 2
Episode: 6
Air Date: 17 February, 2023
Download Links
     Torrent Download     Magnet Download
     Anonymous Download
Added 1 year ago by eztv (verified).
Tracker Statistics
Seeds: 0
Peers: 0
Stats generated @ 20:32 on 15th Apr 2024
Torrent Info
Torrent File: Your.Honor.US.S02E06.Part.Sixteen.2160p.PMTP.WEB-DL.DDP5.1.HDR.H.265-NTb[eztv.re].mkv
Torrent Hash: 617FFCFAAED4C18BC645D200A0C6251F38B83086
Filesize: 5.36 GB
Released: 17th Feb 2023

File Format: MKV (Matroska)
Resolution: 720x404 px
Aspect Ratio: 16:9
Alternate Releases S L
Your Honor S02E06 1080p WEB H264-GGEZ 3 1
Your Honor US S02E06 Part Sixteen 720p AMZN WEBRip DDP5 1 x264-NTb 1 0
Your Honor S02E06 XviD-AFG 0 0
Your Honor US S02E06 Part Sixteen 1080p AMZN WEBRip DDP5 1 x264-NTb 0 0
Your Honor S02E06 480p x264-mSD 0 0
Your Honor S02E06 1080p HEVC x265-MeGusta 5 0
Your Honor US S02E06 2160p PMTP WEB-DL DDP5 1 DV MKV x265-NTb 1 1

Your Honor S02E06 - Part Sixteen

Summary:

Michael and Elizabeth pursue a lead in Robin's murder case; the Baxters make arrangements to silence Eugene; pushed by Gina and Carmine, Jimmy enters into a dangerous alliance; an overdose causes a major rift with the trusted lieutenants of Big Mo.



Your Honor US S02E06 2160p PMTP WEB-DL x265 10bit HDR10Plus DDP5 1 x265-NTb EZTV
Your Honor S2E6 Screenshot
General
Unique ID: 117878179741022013890821478671633938460 (0x58AE82F9388E7C92DCA0903E3B14F81C)
Complete name: Your.Honor.US.S02E06.Part.Sixteen.2160p.PMTP.WEB-DL.DDP5.1.HDR.H.265-NTb.mkv
Format: Matroska
Format version: Version 4
File size: 5.36 GiB
Duration: 53 min 53 s
Overall bit rate: 14.2 Mb/s
Writing application: mkvmerge v73.0.0 ('25 or 6 to 4') 64-bit
Writing library: libebml v1.4.4 + libmatroska v1.7.1

Video
ID: 1
Format: HEVC
Format/Info: High Efficiency Video Coding
Format profile: Main 10@L5@Main
HDR format: SMPTE ST 2094 App 4, Version 1, HDR10+ Profile B compatible
Codec ID: V_MPEGH/ISO/HEVC
Duration: 53 min 33 s
Bit rate: 13.7 Mb/s
Width: 3 840 pixels
Height: 2 160 pixels
Display aspect ratio: 16:9
Frame rate mode: Constant
Frame rate: 23.976 (24000/1001) FPS
Color space: YUV
Chroma subsampling: 4:2:0 (Type 2)
Bit depth: 10 bits
Bits/(Pixel*Frame): 0.069
Stream size: 5.12 GiB (95%)
Default: Yes
Forced: No
Color range: Limited
Color primaries: BT.2020
Transfer characteristics: PQ
Matrix coefficients: BT.2020 non-constant
Mastering display color primaries: BT.2020
Mastering display luminance: min: 0.0001 cd/m2, max: 1000 cd/m2

Audio
ID: 2
Format: E-AC-3
Format/Info: Enhanced AC-3
Commercial name: Dolby Digital Plus
Codec ID: A_EAC3
Duration: 53 min 53 s
Bit rate mode: Constant
Bit rate: 640 kb/s
Channel(s): 6 channels
Channel layout: L R C LFE Ls Rs
Sampling rate: 48.0 kHz
Frame rate: 31.250 FPS (1536 SPF)
Compression mode: Lossy
Stream size: 247 MiB (4%)
Language: English
Service kind: Complete Main
Default: Yes
Forced: No

Text #1
ID: 3
Format: UTF-8
Codec ID: S_TEXT/UTF8
Codec ID/Info: UTF-8 Plain Text
Duration: 52 min 10 s
Bit rate: 60 b/s
Frame rate: 0.253 FPS
Count of elements: 793
Stream size: 23.2 KiB (0%)
Language: English (US)
Default: No
Forced: No

Text #2
ID: 4
Format: UTF-8
Codec ID: S_TEXT/UTF8
Codec ID/Info: UTF-8 Plain Text
Duration: 52 min 43 s
Bit rate: 64 b/s
Frame rate: 0.283 FPS
Count of elements: 894
Stream size: 25.1 KiB (0%)
Title: SDH
Language: English (US)
Default: No
Forced: No
ssl  EZTV RSS EZTV Status | EZTV API | DMCA: [email protected]