eztvx.to | eztvstatus.org
Search title:  
TV Packs only
 

Your Honor US S02E06 Part Sixteen 720p AMZN WEBRip DDP5 1 x264-NTb EZTV

Episode Breakdown
Your Honor
Your Honor TV Show S02E06

Season: 2
Episode: 6
Air Date: 17 February, 2023
Download Links
     Torrent Download     Magnet Download
     Anonymous Download
Added 1 year ago by eztv (verified).
Tracker Statistics
Seeds: 0
Peers: 0
Stats generated @ 19:02 on 28th Feb 2024
Torrent Info
Torrent File: Your.Honor.US.S02E06.Part.Sixteen.720p.AMZN.WEB-DL.DDP5.1.H.264-NTb[eztv.re].mkv
Torrent Hash: 881F2309C313AC0DD4C05D1481D068061169E994
Filesize: 1004 MB
Released: 17th Feb 2023

File Format: MKV (Matroska)
Resolution: 1280x720 px
Aspect Ratio: 16:9
Alternate Releases S L
Your Honor S02E06 1080p WEB H264-GGEZ 5 2
Your Honor S02E06 XviD-AFG 1 2
Your Honor US S02E06 Part Sixteen 1080p AMZN WEBRip DDP5 1 x264-NTb 7 2
Your Honor US S02E06 2160p PMTP WEB-DL x265 10bit HDR10Plus DDP5 1 x265-NTb 7 0
Your Honor S02E06 480p x264-mSD 0 1
Your Honor S02E06 1080p HEVC x265-MeGusta 7 0
Your Honor US S02E06 2160p PMTP WEB-DL DDP5 1 DV MKV x265-NTb 4 4

Your Honor S02E06 - Part Sixteen

Summary:

Michael and Elizabeth pursue a lead in Robin's murder case; the Baxters make arrangements to silence Eugene; pushed by Gina and Carmine, Jimmy enters into a dangerous alliance; an overdose causes a major rift with the trusted lieutenants of Big Mo.



Your Honor US S02E06 Part Sixteen 720p AMZN WEBRip DDP5 1 x264-NTb EZTV
Your Honor S2E6 Screenshot
General
Unique ID: 1319968916819093959480262002068571708 (0xFE377DFE4D5FE430BEEC113326463C)
Complete name: Your.Honor.US.S02E06.Part.Sixteen.720p.AMZN.WEB-DL.DDP5.1.H.264-NTb.mkv
Format: Matroska
Format version: Version 4
File size: 1 004 MiB
Duration: 53 min 53 s
Overall bit rate: 2 605 kb/s
Writing application: mkvmerge v73.0.0 ('25 or 6 to 4') 64-bit
Writing library: libebml v1.4.4 + libmatroska v1.7.1

Video
ID: 1
Format: AVC
Format/Info: Advanced Video Codec
Format profile: [email protected]
Format settings: CABAC / 4 Ref Frames
Format settings, CABAC: Yes
Format settings, Reference frames: 4 frames
Codec ID: V_MPEG4/ISO/AVC
Duration: 53 min 53 s
Bit rate mode: Constant
Bit rate: 1 963 kb/s
Nominal bit rate: 6 000 kb/s
Width: 1 280 pixels
Height: 720 pixels
Display aspect ratio: 16:9
Frame rate mode: Constant
Frame rate: 23.976 (24000/1001) FPS
Color space: YUV
Chroma subsampling: 4:2:0
Bit depth: 8 bits
Scan type: Progressive
Bits/(Pixel*Frame): 0.089
Stream size: 757 MiB (75%)
Default: Yes
Forced: No
Color range: Limited
Color primaries: BT.709
Transfer characteristics: BT.709
Matrix coefficients: BT.709

Audio
ID: 2
Format: E-AC-3
Format/Info: Enhanced AC-3
Commercial name: Dolby Digital Plus
Codec ID: A_EAC3
Duration: 53 min 53 s
Bit rate mode: Constant
Bit rate: 640 kb/s
Channel(s): 6 channels
Channel layout: L R C LFE Ls Rs
Sampling rate: 48.0 kHz
Frame rate: 31.250 FPS (1536 SPF)
Compression mode: Lossy
Delay relative to video: 18 ms
Stream size: 247 MiB (25%)
Language: English (US)
Service kind: Complete Main
Default: Yes
Forced: No

Text #1
ID: 3
Format: UTF-8
Codec ID: S_TEXT/UTF8
Codec ID/Info: UTF-8 Plain Text
Duration: 52 min 11 s
Bit rate: 73 b/s
Frame rate: 0.254 FPS
Count of elements: 795
Stream size: 28.0 KiB (0%)
Language: English (US)
Default: No
Forced: No

Text #2
ID: 4
Format: UTF-8
Codec ID: S_TEXT/UTF8
Codec ID/Info: UTF-8 Plain Text
Duration: 52 min 11 s
Bit rate: 80 b/s
Frame rate: 0.279 FPS
Count of elements: 873
Stream size: 30.9 KiB (0%)
Title: SDH
Language: English (US)
Default: No
Forced: No
ssl  EZTV RSS EZTV Status | EZTV API | DMCA: [email protected]