eztvx.to | eztvstatus.org
Search title:  
TV Packs only
 

Your Honor US S02E05 2160p STAN WEB-DL x265 8bit SDR DDP5 1-NTb EZTV

Episode Breakdown
Your Honor
Your Honor TV Show S02E05

Season: 2
Episode: 5
Air Date: 10 February, 2023
Download Links
     Torrent Download     Magnet Download
     Anonymous Download
Added 1 year ago by eztv (verified).
Tracker Statistics
Seeds: 0
Peers: 0
Stats generated @ 17:20 on 26th May 2024
Torrent Info
Torrent File: Your.Honor.US.S02E05.Part.Fifteen.2160p.STAN.WEB-DL.DDP5.1.H.265-NTb[eztv.re].mkv
Torrent Hash: EE5AE44A19A7BF6BE3FCE428AE72EE6F7F6BF118
Filesize: 4.95 GB
Released: 10th Feb 2023

File Format: MKV (Matroska)
Resolution: 720x404 px
Aspect Ratio: 16:9
Alternate Releases S L
Your Honor S02E05 1080p WEB H264-GLHF 4 0
Your Honor S02E05 XviD-AFG 2 0
Your Honor S02E05 720p WEB h264-KOGi 0 0
Your Honor S02E05 480p x264-mSD 0 0
Your Honor S02E05 1080p HEVC x265-MeGusta 3 0
Your Honor S02E05 720p HEVC x265-MeGusta 0 0
Your Honor US S02E05 Your Honor Part Fifteen 1080p AMZN WEBRip DDP5 1 x264-NTb 0 0

Your Honor S02E05 - Part Fifteen

Summary:

Following the events at Jimmy's birthday party, Michael vows to quit aiding Olivia; Charlie makes an unexpected move; Little Mo gets on the wrong side of Big Mo after he helps Eugene; Nancy chases a lead connected to the murder of Michael's wife.



Your Honor US S02E05 2160p STAN WEB-DL x265 8bit SDR DDP5 1-NTb EZTV
Your Honor S2E5 Screenshot
General
Unique ID: 172364453085666301481568220670624190988 (0x81AC2FA7D3490D6A981C59CDE19AD20C)
Complete name: Your.Honor.US.S02E05.Part.Fifteen.2160p.STAN.WEB-DL.DDP5.1.H.265-NTb.mkv
Format: Matroska
Format version: Version 4
File size: 4.95 GiB
Duration: 51 min 14 s
Overall bit rate: 13.8 Mb/s
Writing application: mkvmerge v68.0.0 ('The Curtain') 64-bit
Writing library: libebml v1.4.2 + libmatroska v1.6.4

Video
ID: 1
Format: HEVC
Format/Info: High Efficiency Video Coding
Format profile: Main@L5@High
Codec ID: V_MPEGH/ISO/HEVC
Duration: 51 min 14 s
Bit rate: 13.2 Mb/s
Width: 3 840 pixels
Height: 2 026 pixels
Display aspect ratio: 1.895
Frame rate mode: Constant
Frame rate: 23.976 (24000/1001) FPS
Color space: YUV
Chroma subsampling: 4:2:0
Bit depth: 8 bits
Bits/(Pixel*Frame): 0.071
Stream size: 4.72 GiB (95%)
Default: Yes
Forced: No
Color range: Limited
Color primaries: BT.709
Transfer characteristics: BT.709
Matrix coefficients: BT.709

Audio
ID: 2
Format: E-AC-3
Format/Info: Enhanced AC-3
Commercial name: Dolby Digital Plus
Codec ID: A_EAC3
Duration: 50 min 53 s
Bit rate mode: Constant
Bit rate: 640 kb/s
Channel(s): 6 channels
Channel layout: L R C LFE Ls Rs
Sampling rate: 48.0 kHz
Frame rate: 31.250 FPS (1536 SPF)
Compression mode: Lossy
Stream size: 233 MiB (5%)
Language: English
Service kind: Complete Main
Default: Yes
Forced: No

Text #1
ID: 3
Format: UTF-8
Codec ID: S_TEXT/UTF8
Codec ID/Info: UTF-8 Plain Text
Duration: 49 min 44 s
Bit rate: 51 b/s
Frame rate: 0.232 FPS
Count of elements: 691
Stream size: 18.9 KiB (0%)
Language: English
Default: No
Forced: No

Text #2
ID: 4
Format: UTF-8
Codec ID: S_TEXT/UTF8
Codec ID/Info: UTF-8 Plain Text
Duration: 50 min 53 s
Bit rate: 55 b/s
Frame rate: 0.257 FPS
Count of elements: 784
Stream size: 20.7 KiB (0%)
Title: SDH
Language: English
Default: No
Forced: No

Menu
00:00:05.000: Recap
00:02:06.000: Chapter 1
00:49:55.000: Credits
ssl  EZTV RSS EZTV Status | EZTV API | DMCA: [email protected]