eztvx.to | eztvstatus.org
Search title:  
TV Packs only
 

Your Honor US S02E05 Your Honor Part Fifteen 1080p AMZN WEBRip DDP5 1 x264-NTb EZTV

Episode Breakdown
Your Honor
Your Honor TV Show S02E05

Season: 2
Episode: 5
Air Date: 10 February, 2023
Download Links
     Torrent Download     Magnet Download
     Anonymous Download
Added 1 year ago by eztv (verified).
Tracker Statistics
Seeds: 0
Peers: 7
Stats generated @ 04:44 on 28th Feb 2024
Torrent Info
Torrent File: Your.Honor.US.S02E05.Your.Honor.Part.Fifteen.1080p.AMZN.WEB-DL.DDP5.1.H.264-NTb[eztv.re].mkv
Torrent Hash: E8E9B5DE0226FF26BD509609CFCAEE9FE7317DF6
Filesize: 2.06 GB
Released: 10th Feb 2023

File Format: MKV (Matroska)
Resolution: 1920x1080 px
Aspect Ratio: 16:9
Alternate Releases S L
Your Honor S02E05 1080p WEB H264-GLHF 8 4
Your Honor S02E05 XviD-AFG 1 17
Your Honor S02E05 720p WEB h264-KOGi 1 18
Your Honor S02E05 480p x264-mSD 0 0
Your Honor S02E05 1080p HEVC x265-MeGusta 11 14
Your Honor S02E05 720p HEVC x265-MeGusta 5 14
Your Honor US S02E05 2160p STAN WEB-DL x265 8bit SDR DDP5 1-NTb 0 0

Your Honor S02E05 - Part Fifteen

Summary:

Following the events at Jimmy's birthday party, Michael vows to quit aiding Olivia; Charlie makes an unexpected move; Little Mo gets on the wrong side of Big Mo after he helps Eugene; Nancy chases a lead connected to the murder of Michael's wife.



Your Honor US S02E05 Your Honor Part Fifteen 1080p AMZN WEBRip DDP5 1 x264-NTb EZTV
Your Honor S2E5 Screenshot
General
Unique ID: 41653268228195953708114064558603750925 (0x1F5620AE141AB1D961C97E1E8E39CE0D)
Complete name: Your.Honor.US.S02E05.Your.Honor.Part.Fifteen.1080p.AMZN.WEB-DL.DDP5.1.H.264-NTb.mkv
Format: Matroska
Format version: Version 4
File size: 2.06 GiB
Duration: 52 min 41 s
Overall bit rate: 5 591 kb/s
Writing application: mkvmerge v68.0.0 ('The Curtain') 64-bit
Writing library: libebml v1.4.2 + libmatroska v1.6.4

Video
ID: 1
Format: AVC
Format/Info: Advanced Video Codec
Format profile: High@L4
Format settings: CABAC / 4 Ref Frames
Format settings, CABAC: Yes
Format settings, Reference frames: 4 frames
Codec ID: V_MPEG4/ISO/AVC
Duration: 52 min 41 s
Bit rate mode: Constant
Bit rate: 4 949 kb/s
Nominal bit rate: 10 000 kb/s
Width: 1 920 pixels
Height: 1 080 pixels
Display aspect ratio: 16:9
Frame rate mode: Constant
Frame rate: 23.976 (24000/1001) FPS
Color space: YUV
Chroma subsampling: 4:2:0
Bit depth: 8 bits
Scan type: Progressive
Bits/(Pixel*Frame): 0.100
Stream size: 1.82 GiB (89%)
Default: Yes
Forced: No
Color range: Limited
Color primaries: BT.709
Transfer characteristics: BT.709
Matrix coefficients: BT.709

Audio
ID: 2
Format: E-AC-3
Format/Info: Enhanced AC-3
Commercial name: Dolby Digital Plus
Codec ID: A_EAC3
Duration: 52 min 41 s
Bit rate mode: Constant
Bit rate: 640 kb/s
Channel(s): 6 channels
Channel layout: L R C LFE Ls Rs
Sampling rate: 48.0 kHz
Frame rate: 31.250 FPS (1536 SPF)
Compression mode: Lossy
Delay relative to video: 18 ms
Stream size: 241 MiB (11%)
Language: English (US)
Service kind: Complete Main
Default: Yes
Forced: No

Text #1
ID: 3
Format: UTF-8
Codec ID: S_TEXT/UTF8
Codec ID/Info: UTF-8 Plain Text
Duration: 49 min 44 s
Bit rate: 63 b/s
Frame rate: 0.232 FPS
Count of elements: 692
Stream size: 23.0 KiB (0%)
Language: English (US)
Default: No
Forced: No

Text #2
ID: 4
Format: UTF-8
Codec ID: S_TEXT/UTF8
Codec ID/Info: UTF-8 Plain Text
Duration: 49 min 44 s
Bit rate: 69 b/s
Frame rate: 0.252 FPS
Count of elements: 753
Stream size: 25.2 KiB (0%)
Title: SDH
Language: English (US)
Default: No
Forced: No
ssl  EZTV RSS EZTV Status | EZTV API | DMCA: [email protected]