eztvx.to | eztvstatus.org
Search title:  
TV Packs only
 

The Last of Us S01E04 2160p CRAV WEB-DL DDP5 1 Atmos x265-NTb EZTV

Episode Breakdown
The Last of Us
The Last of Us TV Show S01E04

Season: 1
Episode: 4
Air Date: 5 February, 2023
Download Links
     Torrent Download     Magnet Download
     Anonymous Download
Added 1 year ago by eztv (verified).
Tracker Statistics
Seeds: 8
Peers: 0
Stats generated @ 01:49 on 21st Feb 2024
Torrent Info
Torrent File: The.Last.of.Us.S01E04.Please.Hold.on.to.My.Hand.2160p.CRAV.WEB-DL.DDP5.1.HEVC-NTb[eztv.re].mkv
Torrent Hash: 4D7535B2E5F936DA8305F832A544E511A8C783AC
Filesize: 4.63 GB
Released: 5th Feb 2023

File Format: MKV (Matroska)
Resolution: 720x404 px
Aspect Ratio: 16:9
Alternate Releases S L
The Last of Us S01E04 720p WEB h264-TRUFFLE 21 1
The Last of Us S01E04 1080p WEB H264-CAKES 55 4
The Last of Us S01E04 720p HEVC x265-MeGusta 13 1
The Last of Us S01E04 480p x264-mSD 6 0
The Last of Us S01E04 1080p HEVC x265-MeGusta 162 17
The Last of Us S01E04 Please Hold My Hand 1080p AMZN WEBRip DDP5 1 x264-NTb 13 0
The Last of Us S01E04 Please Hold on to My Hand 2160p HMAX WEB-DL DDP5 1 HDR x265-NTb 32 3

The Last of Us S01E04 - Please Hold to My Hand

Summary:

After abandoning their truck in Kansas City, Joel and Ellie attempt to escape without drawing the attention of a vindictive rebel leader.



The Last of Us S01E04 2160p CRAV WEB-DL DDP5 1 Atmos x265-NTb EZTV
The Last of Us S1E4 Screenshot
General
Unique ID: 325243952441895695867271898640864952796 (0xF4AFB4EBDB07153B11E1F59C62B6C1DC)
Complete name: The.Last.of.Us.S01E04.Please.Hold.on.to.My.Hand.2160p.CRAV.WEB-DL.DDP5.1.HEVC-NTb.mkv
Format: Matroska
Format version: Version 4
File size: 4.63 GiB
Duration: 45 min 37 s
Overall bit rate: 14.5 Mb/s
Writing application: mkvmerge v69.0.0 ('Day And Age') 64-bit
Writing library: libebml v1.4.2 + libmatroska v1.6.4

Video
ID: 1
Format: HEVC
Format/Info: High Efficiency Video Coding
Format profile: Main 10@L5@High
Codec ID: V_MPEGH/ISO/HEVC
Duration: 45 min 37 s
Bit rate: 13.7 Mb/s
Width: 3 840 pixels
Height: 2 160 pixels
Display aspect ratio: 16:9
Frame rate mode: Constant
Frame rate: 23.976 (24000/1001) FPS
Color space: YUV
Chroma subsampling: 4:2:0
Bit depth: 10 bits
Bits/(Pixel*Frame): 0.069
Stream size: 4.38 GiB (95%)
Default: Yes
Forced: No
Color range: Limited
Color primaries: BT.709
Transfer characteristics: BT.709
Matrix coefficients: BT.709

Audio
ID: 4
Format: E-AC-3
Format/Info: Enhanced AC-3
Commercial name: Dolby Digital Plus
Codec ID: A_EAC3
Duration: 45 min 37 s
Bit rate mode: Constant
Bit rate: 768 kb/s
Channel(s): 6 channels
Channel layout: L R C LFE Ls Rs
Sampling rate: 48.0 kHz
Frame rate: 31.250 FPS (1536 SPF)
Compression mode: Lossy
Stream size: 251 MiB (5%)
Language: English
Service kind: Complete Main
Default: Yes
Forced: No

Text #1
ID: 5
Format: UTF-8
Codec ID: S_TEXT/UTF8
Codec ID/Info: UTF-8 Plain Text
Duration: 42 min 25 s
Bit rate: 36 b/s
Frame rate: 0.168 FPS
Count of elements: 428
Stream size: 11.4 KiB (0%)
Language: English (US)
Default: No
Forced: No

Text #2
ID: 6
Format: UTF-8
Codec ID: S_TEXT/UTF8
Codec ID/Info: UTF-8 Plain Text
Duration: 44 min 58 s
Bit rate: 45 b/s
Frame rate: 0.208 FPS
Count of elements: 562
Stream size: 15.0 KiB (0%)
Title: SDH
Language: English (US)
Default: No
Forced: No

Text #3
ID: 7
Format: UTF-8
Codec ID: S_TEXT/UTF8
Codec ID/Info: UTF-8 Plain Text
Duration: 42 min 5 s
Bit rate: 53 b/s
Frame rate: 0.173 FPS
Count of elements: 438
Stream size: 16.5 KiB (0%)
Language: Bulgarian (BG)
Default: No
Forced: No

Text #4
ID: 8
Format: UTF-8
Codec ID: S_TEXT/UTF8
Codec ID/Info: UTF-8 Plain Text
Duration: 42 min 5 s
Bit rate: 32 b/s
Frame rate: 0.173 FPS
Count of elements: 438
Stream size: 10.1 KiB (0%)
Language: Czech (CZ)
Default: No
Forced: No

Text #5
ID: 9
Format: UTF-8
Codec ID: S_TEXT/UTF8
Codec ID/Info: UTF-8 Plain Text
Duration: 42 min 5 s
Bit rate: 32 b/s
Frame rate: 0.173 FPS
Count of elements: 436
Stream size: 9.90 KiB (0%)
Language: Danish (DK)
Default: No
Forced: No

Text #6
ID: 10
Format: UTF-8
Codec ID: S_TEXT/UTF8
Codec ID/Info: UTF-8 Plain Text
Duration: 42 min 5 s
Bit rate: 56 b/s
Frame rate: 0.174 FPS
Count of elements: 439
Stream size: 17.3 KiB (0%)
Language: Greek (GR)
Default: No
Forced: No

Text #7
ID: 11
Format: UTF-8
Codec ID: S_TEXT/UTF8
Codec ID/Info: UTF-8 Plain Text
Duration: 42 min 5 s
Bit rate: 33 b/s
Frame rate: 0.171 FPS
Count of elements: 431
Stream size: 10.3 KiB (0%)
Title: Spanish (Latin America)
Language: Spanish (Latin America)
Default: No
Forced: No

Text #8
ID: 12
Format: UTF-8
Codec ID: S_TEXT/UTF8
Codec ID/Info: UTF-8 Plain Text
Duration: 40 min 57 s
Bit rate: 38 b/s
Frame rate: 0.155 FPS
Count of elements: 382
Stream size: 11.6 KiB (0%)
Title: Spanish (Spain)
Language: Spanish (ES)
Default: No
Forced: No

Text #9
ID: 13
Format: UTF-8
Codec ID: S_TEXT/UTF8
Codec ID/Info: UTF-8 Plain Text
Duration: 42 min 5 s
Bit rate: 37 b/s
Frame rate: 0.173 FPS
Count of elements: 438
Stream size: 11.4 KiB (0%)
Language: Estonian (EE)
Default: No
Forced: No

Text #10
ID: 14
Format: UTF-8
Codec ID: S_TEXT/UTF8
Codec ID/Info: UTF-8 Plain Text
Duration: 42 min 5 s
Bit rate: 34 b/s
Frame rate: 0.172 FPS
Count of elements: 434
Stream size: 10.6 KiB (0%)
Language: Finnish (FI)
Default: No
Forced: No

Text #11
ID: 15
Format: UTF-8
Codec ID: S_TEXT/UTF8
Codec ID/Info: UTF-8 Plain Text
Duration: 42 min 5 s
Bit rate: 31 b/s
Frame rate: 0.173 FPS
Count of elements: 437
Stream size: 9.71 KiB (0%)
Language: Croatian (HR)
Default: No
Forced: No

Text #12
ID: 16
Format: UTF-8
Codec ID: S_TEXT/UTF8
Codec ID/Info: UTF-8 Plain Text
Duration: 42 min 5 s
Bit rate: 33 b/s
Frame rate: 0.174 FPS
Count of elements: 439
Stream size: 10.2 KiB (0%)
Language: Hungarian (HU)
Default: No
Forced: No

Text #13
ID: 17
Format: UTF-8
Codec ID: S_TEXT/UTF8
Codec ID/Info: UTF-8 Plain Text
Duration: 42 min 5 s
Bit rate: 40 b/s
Frame rate: 0.172 FPS
Count of elements: 434
Stream size: 12.4 KiB (0%)
Language: Icelandic (IS)
Default: No
Forced: No

Text #14
ID: 18
Format: UTF-8
Codec ID: S_TEXT/UTF8
Codec ID/Info: UTF-8 Plain Text
Duration: 42 min 5 s
Bit rate: 32 b/s
Frame rate: 0.173 FPS
Count of elements: 438
Stream size: 10.2 KiB (0%)
Language: Lithuanian (LT)
Default: No
Forced: No

Text #15
ID: 19
Format: UTF-8
Codec ID: S_TEXT/UTF8
Codec ID/Info: UTF-8 Plain Text
Duration: 42 min 5 s
Bit rate: 35 b/s
Frame rate: 0.173 FPS
Count of elements: 438
Stream size: 10.8 KiB (0%)
Language: Latvian (LV)
Default: No
Forced: No

Text #16
ID: 20
Format: UTF-8
Codec ID: S_TEXT/UTF8
Codec ID/Info: UTF-8 Plain Text
Duration: 42 min 5 s
Bit rate: 60 b/s
Frame rate: 0.173 FPS
Count of elements: 438
Stream size: 18.8 KiB (0%)
Language: Macedonian (MK)
Default: No
Forced: No

Text #17
ID: 21
Format: UTF-8
Codec ID: S_TEXT/UTF8
Codec ID/Info: UTF-8 Plain Text
Duration: 42 min 5 s
Bit rate: 30 b/s
Frame rate: 0.169 FPS
Count of elements: 428
Stream size: 9.35 KiB (0%)
Language: Dutch (NL)
Default: No
Forced: No

Text #18
ID: 22
Format: UTF-8
Codec ID: S_TEXT/UTF8
Codec ID/Info: UTF-8 Plain Text
Duration: 42 min 5 s
Bit rate: 33 b/s
Frame rate: 0.171 FPS
Count of elements: 432
Stream size: 10.3 KiB (0%)
Language: Norwegian (NO)
Default: No
Forced: No

Text #19
ID: 23
Format: UTF-8
Codec ID: S_TEXT/UTF8
Codec ID/Info: UTF-8 Plain Text
Duration: 42 min 5 s
Bit rate: 29 b/s
Frame rate: 0.173 FPS
Count of elements: 436
Stream size: 9.21 KiB (0%)
Language: Polish (PL)
Default: No
Forced: No

Text #20
ID: 24
Format: UTF-8
Codec ID: S_TEXT/UTF8
Codec ID/Info: UTF-8 Plain Text
Duration: 42 min 5 s
Bit rate: 30 b/s
Frame rate: 0.173 FPS
Count of elements: 437
Stream size: 9.37 KiB (0%)
Title: Portuguese (Brazil)
Language: Portuguese (BR)
Default: No
Forced: No

Text #21
ID: 25
Format: UTF-8
Codec ID: S_TEXT/UTF8
Codec ID/Info: UTF-8 Plain Text
Duration: 42 min 5 s
Bit rate: 30 b/s
Frame rate: 0.174 FPS
Count of elements: 439
Stream size: 9.41 KiB (0%)
Title: Portuguese (Portugal)
Language: Portuguese (PT)
Default: No
Forced: No

Text #22
ID: 26
Format: UTF-8
Codec ID: S_TEXT/UTF8
Codec ID/Info: UTF-8 Plain Text
Duration: 42 min 5 s
Bit rate: 36 b/s
Frame rate: 0.172 FPS
Count of elements: 435
Stream size: 11.4 KiB (0%)
Language: Romanian (RO)
Default: No
Forced: No

Text #23
ID: 27
Format: UTF-8
Codec ID: S_TEXT/UTF8
Codec ID/Info: UTF-8 Plain Text
Duration: 43 min 51 s
Bit rate: 52 b/s
Frame rate: 0.167 FPS
Count of elements: 439
Stream size: 16.9 KiB (0%)
Language: Russian (RU)
Default: No
Forced: No

Text #24
ID: 28
Format: UTF-8
Codec ID: S_TEXT/UTF8
Codec ID/Info: UTF-8 Plain Text
Duration: 42 min 5 s
Bit rate: 33 b/s
Frame rate: 0.172 FPS
Count of elements: 435
Stream size: 10.4 KiB (0%)
Language: Slovak (SK)
Default: No
Forced: No

Text #25
ID: 29
Format: UTF-8
Codec ID: S_TEXT/UTF8
Codec ID/Info: UTF-8 Plain Text
Duration: 42 min 5 s
Bit rate: 32 b/s
Frame rate: 0.173 FPS
Count of elements: 437
Stream size: 10.1 KiB (0%)
Language: Slovenian (SI)
Default: No
Forced: No

Text #26
ID: 30
Format: UTF-8
Codec ID: S_TEXT/UTF8
Codec ID/Info: UTF-8 Plain Text
Duration: 42 min 5 s
Bit rate: 32 b/s
Frame rate: 0.173 FPS
Count of elements: 438
Stream size: 10.1 KiB (0%)
Language: Serbian-Latn-RS
Default: No
Forced: No

Text #27
ID: 31
Format: UTF-8
Codec ID: S_TEXT/UTF8
Codec ID/Info: UTF-8 Plain Text
Duration: 42 min 5 s
Bit rate: 32 b/s
Frame rate: 0.172 FPS
Count of elements: 435
Stream size: 10.1 KiB (0%)
Language: Swedish (SE)
Default: No
Forced: No

Text #28
ID: 32
Format: UTF-8
Codec ID: S_TEXT/UTF8
Codec ID/Info: UTF-8 Plain Text
Duration: 42 min 5 s
Bit rate: 35 b/s
Frame rate: 0.173 FPS
Count of elements: 438
Stream size: 10.9 KiB (0%)
Language: Turkish (TR)
Default: No
Forced: No

Menu
00:00:00.000: Chapter 1
00:44:34.000: Credits
ssl  EZTV RSS EZTV Status | EZTV API | DMCA: [email protected]