eztvx.to | eztvstatus.org
Search title:  
TV Packs only
 

The Last of Us S01E04 Please Hold My Hand 1080p AMZN WEBRip DDP5 1 x264-NTb EZTV

Episode Breakdown
The Last of Us
The Last of Us TV Show S01E04

Season: 1
Episode: 4
Air Date: 5 February, 2023
Download Links
     Torrent Download     Magnet Download
     Anonymous Download
Added 1 year ago by eztv (verified).
Tracker Statistics
Seeds: 13
Peers: 0
Stats generated @ 19:02 on 21st May 2024
Torrent Info
Torrent File: The.Last.of.Us.S01E04.Please.Hold.My.Hand.1080p.AMZN.WEB-DL.DDP5.1.H.264-NTb[eztv.re].mkv
Torrent Hash: CEAB60CA78549FD76D780C9B9FDB55A50C47AFCF
Filesize: 2.65 GB
Released: 5th Feb 2023

File Format: MKV (Matroska)
Resolution: 1920x1080 px
Aspect Ratio: 16:9
Alternate Releases S L
The Last of Us S01E04 720p WEB h264-TRUFFLE 21 0
The Last of Us S01E04 1080p WEB H264-CAKES 44 2
The Last of Us S01E04 720p HEVC x265-MeGusta 15 1
The Last of Us S01E04 480p x264-mSD 6 1
The Last of Us S01E04 1080p HEVC x265-MeGusta 143 24
The Last of Us S01E04 Please Hold on to My Hand 2160p HMAX WEB-DL DDP5 1 HDR x265-NTb 17 2
The Last of Us S01E04 2160p CRAV WEB-DL DDP5 1 Atmos x265-NTb 5 0

The Last of Us S01E04 - Please Hold to My Hand

Summary:

After abandoning their truck in Kansas City, Joel and Ellie attempt to escape without drawing the attention of a vindictive rebel leader.



The Last of Us S01E04 Please Hold My Hand 1080p AMZN WEBRip DDP5 1 x264-NTb EZTV
The Last of Us S1E4 Screenshot
General
Unique ID: 45305596154788326970364976491955938439 (0x22158A598205E74E0036790F6F0EE487)
Complete name: The.Last.of.Us.S01E04.Please.Hold.My.Hand.1080p.AMZN.WEB-DL.DDP5.1.H.264-NTb.mkv
Format: Matroska
Format version: Version 4
File size: 2.65 GiB
Duration: 45 min 14 s
Overall bit rate: 8 386 kb/s
Writing application: mkvmerge v68.0.0 ('The Curtain') 64-bit
Writing library: libebml v1.4.2 + libmatroska v1.6.4

Video
ID: 1
Format: AVC
Format/Info: Advanced Video Codec
Format profile: High@L4
Format settings: CABAC / 4 Ref Frames
Format settings, CABAC: Yes
Format settings, Reference frames: 4 frames
Codec ID: V_MPEG4/ISO/AVC
Duration: 45 min 14 s
Bit rate mode: Constant
Bit rate: 7 615 kb/s
Nominal bit rate: 10 000 kb/s
Width: 1 920 pixels
Height: 1 080 pixels
Display aspect ratio: 16:9
Frame rate mode: Constant
Frame rate: 23.976 (24000/1001) FPS
Color space: YUV
Chroma subsampling: 4:2:0
Bit depth: 8 bits
Scan type: Progressive
Bits/(Pixel*Frame): 0.153
Stream size: 2.41 GiB (91%)
Default: Yes
Forced: No
Color range: Limited
Color primaries: BT.709
Transfer characteristics: BT.709
Matrix coefficients: BT.709

Audio
ID: 2
Format: E-AC-3 JOC
Format/Info: Enhanced AC-3 with Joint Object Coding
Commercial name: Dolby Digital Plus with Dolby Atmos
Codec ID: A_EAC3
Duration: 45 min 8 s
Bit rate mode: Constant
Bit rate: 768 kb/s
Channel(s): 6 channels
Channel layout: L R C LFE Ls Rs
Sampling rate: 48.0 kHz
Frame rate: 31.250 FPS (1536 SPF)
Compression mode: Lossy
Stream size: 248 MiB (9%)
Language: English
Service kind: Complete Main
Default: Yes
Forced: No
Complexity index: 16
Number of dynamic objects: 15
Bed channel count: 1 channel
Bed channel configuration: LFE

Text #1
ID: 3
Format: UTF-8
Codec ID: S_TEXT/UTF8
Codec ID/Info: UTF-8 Plain Text
Duration: 42 min 25 s
Bit rate: 36 b/s
Frame rate: 0.168 FPS
Count of elements: 428
Stream size: 11.4 KiB (0%)
Language: English (US)
Default: No
Forced: No

Text #2
ID: 4
Format: UTF-8
Codec ID: S_TEXT/UTF8
Codec ID/Info: UTF-8 Plain Text
Duration: 44 min 58 s
Bit rate: 45 b/s
Frame rate: 0.208 FPS
Count of elements: 562
Stream size: 15.0 KiB (0%)
Title: SDH
Language: English (US)
Default: No
Forced: No

Text #3
ID: 5
Format: UTF-8
Codec ID: S_TEXT/UTF8
Codec ID/Info: UTF-8 Plain Text
Duration: 42 min 5 s
Bit rate: 53 b/s
Frame rate: 0.173 FPS
Count of elements: 438
Stream size: 16.5 KiB (0%)
Language: Bulgarian (BG)
Default: No
Forced: No

Text #4
ID: 6
Format: UTF-8
Codec ID: S_TEXT/UTF8
Codec ID/Info: UTF-8 Plain Text
Duration: 42 min 5 s
Bit rate: 32 b/s
Frame rate: 0.173 FPS
Count of elements: 438
Stream size: 10.1 KiB (0%)
Language: Czech (CZ)
Default: No
Forced: No

Text #5
ID: 7
Format: UTF-8
Codec ID: S_TEXT/UTF8
Codec ID/Info: UTF-8 Plain Text
Duration: 42 min 5 s
Bit rate: 32 b/s
Frame rate: 0.173 FPS
Count of elements: 436
Stream size: 9.91 KiB (0%)
Language: Danish (DK)
Default: No
Forced: No

Text #6
ID: 8
Format: UTF-8
Codec ID: S_TEXT/UTF8
Codec ID/Info: UTF-8 Plain Text
Duration: 42 min 5 s
Bit rate: 56 b/s
Frame rate: 0.174 FPS
Count of elements: 439
Stream size: 17.3 KiB (0%)
Language: Greek (GR)
Default: No
Forced: No

Text #7
ID: 9
Format: UTF-8
Codec ID: S_TEXT/UTF8
Codec ID/Info: UTF-8 Plain Text
Duration: 42 min 5 s
Bit rate: 33 b/s
Frame rate: 0.171 FPS
Count of elements: 431
Stream size: 10.3 KiB (0%)
Title: Spanish (Latin America)
Language: Spanish (Latin America)
Default: No
Forced: No

Text #8
ID: 10
Format: UTF-8
Codec ID: S_TEXT/UTF8
Codec ID/Info: UTF-8 Plain Text
Duration: 40 min 57 s
Bit rate: 38 b/s
Frame rate: 0.155 FPS
Count of elements: 382
Stream size: 11.6 KiB (0%)
Title: Spanish (Spain)
Language: Spanish (ES)
Default: No
Forced: No

Text #9
ID: 11
Format: UTF-8
Codec ID: S_TEXT/UTF8
Codec ID/Info: UTF-8 Plain Text
Duration: 42 min 5 s
Bit rate: 37 b/s
Frame rate: 0.173 FPS
Count of elements: 438
Stream size: 11.4 KiB (0%)
Language: Estonian (EE)
Default: No
Forced: No

Text #10
ID: 12
Format: UTF-8
Codec ID: S_TEXT/UTF8
Codec ID/Info: UTF-8 Plain Text
Duration: 42 min 5 s
Bit rate: 34 b/s
Frame rate: 0.172 FPS
Count of elements: 434
Stream size: 10.6 KiB (0%)
Language: Finnish (FI)
Default: No
Forced: No

Text #11
ID: 13
Format: UTF-8
Codec ID: S_TEXT/UTF8
Codec ID/Info: UTF-8 Plain Text
Duration: 42 min 5 s
Bit rate: 31 b/s
Frame rate: 0.173 FPS
Count of elements: 437
Stream size: 9.72 KiB (0%)
Language: Croatian (HR)
Default: No
Forced: No

Text #12
ID: 14
Format: UTF-8
Codec ID: S_TEXT/UTF8
Codec ID/Info: UTF-8 Plain Text
Duration: 42 min 5 s
Bit rate: 33 b/s
Frame rate: 0.174 FPS
Count of elements: 439
Stream size: 10.2 KiB (0%)
Language: Hungarian (HU)
Default: No
Forced: No

Text #13
ID: 15
Format: UTF-8
Codec ID: S_TEXT/UTF8
Codec ID/Info: UTF-8 Plain Text
Duration: 42 min 5 s
Bit rate: 40 b/s
Frame rate: 0.172 FPS
Count of elements: 434
Stream size: 12.4 KiB (0%)
Language: Icelandic (IS)
Default: No
Forced: No

Text #14
ID: 16
Format: UTF-8
Codec ID: S_TEXT/UTF8
Codec ID/Info: UTF-8 Plain Text
Duration: 42 min 5 s
Bit rate: 32 b/s
Frame rate: 0.173 FPS
Count of elements: 438
Stream size: 10.2 KiB (0%)
Language: Lithuanian (LT)
Default: No
Forced: No

Text #15
ID: 17
Format: UTF-8
Codec ID: S_TEXT/UTF8
Codec ID/Info: UTF-8 Plain Text
Duration: 42 min 5 s
Bit rate: 35 b/s
Frame rate: 0.173 FPS
Count of elements: 438
Stream size: 10.8 KiB (0%)
Language: Latvian (LV)
Default: No
Forced: No

Text #16
ID: 18
Format: UTF-8
Codec ID: S_TEXT/UTF8
Codec ID/Info: UTF-8 Plain Text
Duration: 42 min 5 s
Bit rate: 60 b/s
Frame rate: 0.173 FPS
Count of elements: 438
Stream size: 18.8 KiB (0%)
Language: Macedonian (MK)
Default: No
Forced: No

Text #17
ID: 19
Format: UTF-8
Codec ID: S_TEXT/UTF8
Codec ID/Info: UTF-8 Plain Text
Duration: 42 min 5 s
Bit rate: 30 b/s
Frame rate: 0.169 FPS
Count of elements: 428
Stream size: 9.37 KiB (0%)
Language: Dutch (NL)
Default: No
Forced: No

Text #18
ID: 20
Format: UTF-8
Codec ID: S_TEXT/UTF8
Codec ID/Info: UTF-8 Plain Text
Duration: 42 min 5 s
Bit rate: 33 b/s
Frame rate: 0.171 FPS
Count of elements: 432
Stream size: 10.3 KiB (0%)
Language: Norwegian (NO)
Default: No
Forced: No

Text #19
ID: 21
Format: UTF-8
Codec ID: S_TEXT/UTF8
Codec ID/Info: UTF-8 Plain Text
Duration: 42 min 5 s
Bit rate: 29 b/s
Frame rate: 0.173 FPS
Count of elements: 436
Stream size: 9.22 KiB (0%)
Language: Polish (PL)
Default: No
Forced: No

Text #20
ID: 22
Format: UTF-8
Codec ID: S_TEXT/UTF8
Codec ID/Info: UTF-8 Plain Text
Duration: 42 min 5 s
Bit rate: 30 b/s
Frame rate: 0.173 FPS
Count of elements: 437
Stream size: 9.38 KiB (0%)
Title: Portuguese (Brazil)
Language: Portuguese (BR)
Default: No
Forced: No

Text #21
ID: 23
Format: UTF-8
Codec ID: S_TEXT/UTF8
Codec ID/Info: UTF-8 Plain Text
Duration: 42 min 5 s
Bit rate: 30 b/s
Frame rate: 0.174 FPS
Count of elements: 439
Stream size: 9.42 KiB (0%)
Title: Portuguese (Portugal)
Language: Portuguese (PT)
Default: No
Forced: No

Text #22
ID: 24
Format: UTF-8
Codec ID: S_TEXT/UTF8
Codec ID/Info: UTF-8 Plain Text
Duration: 42 min 5 s
Bit rate: 36 b/s
Frame rate: 0.172 FPS
Count of elements: 435
Stream size: 11.4 KiB (0%)
Language: Romanian (RO)
Default: No
Forced: No

Text #23
ID: 25
Format: UTF-8
Codec ID: S_TEXT/UTF8
Codec ID/Info: UTF-8 Plain Text
Duration: 43 min 51 s
Bit rate: 52 b/s
Frame rate: 0.167 FPS
Count of elements: 439
Stream size: 16.9 KiB (0%)
Language: Russian (RU)
Default: No
Forced: No

Text #24
ID: 26
Format: UTF-8
Codec ID: S_TEXT/UTF8
Codec ID/Info: UTF-8 Plain Text
Duration: 42 min 5 s
Bit rate: 33 b/s
Frame rate: 0.172 FPS
Count of elements: 435
Stream size: 10.4 KiB (0%)
Language: Slovak (SK)
Default: No
Forced: No

Text #25
ID: 27
Format: UTF-8
Codec ID: S_TEXT/UTF8
Codec ID/Info: UTF-8 Plain Text
Duration: 42 min 5 s
Bit rate: 32 b/s
Frame rate: 0.173 FPS
Count of elements: 437
Stream size: 10.1 KiB (0%)
Language: Slovenian (SI)
Default: No
Forced: No

Text #26
ID: 28
Format: UTF-8
Codec ID: S_TEXT/UTF8
Codec ID/Info: UTF-8 Plain Text
Duration: 42 min 5 s
Bit rate: 32 b/s
Frame rate: 0.173 FPS
Count of elements: 438
Stream size: 10.1 KiB (0%)
Language: Serbian-Latn-RS
Default: No
Forced: No

Text #27
ID: 29
Format: UTF-8
Codec ID: S_TEXT/UTF8
Codec ID/Info: UTF-8 Plain Text
Duration: 42 min 5 s
Bit rate: 32 b/s
Frame rate: 0.172 FPS
Count of elements: 435
Stream size: 10.1 KiB (0%)
Language: Swedish (SE)
Default: No
Forced: No

Text #28
ID: 30
Format: UTF-8
Codec ID: S_TEXT/UTF8
Codec ID/Info: UTF-8 Plain Text
Duration: 42 min 5 s
Bit rate: 35 b/s
Frame rate: 0.173 FPS
Count of elements: 438
Stream size: 10.9 KiB (0%)
Language: Turkish (TR)
Default: No
Forced: No

Menu
00:00:06.965: en:Intro
00:01:13.700: en:Chapter 1
00:44:09.000: en:Credits
ssl  EZTV RSS EZTV Status | EZTV API | DMCA: [email protected]