eztvx.to | eztvstatus.org
Search title:  
TV Packs only
 

Your Honor US S02E01 2160p PMTP WEB-DL x265 10bit HDR10Plus DDP5 1 x265-NTb EZTV

Episode Breakdown
Your Honor
Your Honor TV Show S02E01

Season: 2
Episode: 1
Air Date: 13 January, 2023
Download Links
     Torrent Download     Magnet Download
     Anonymous Download
Added 1 year ago by eztv (verified).
Tracker Statistics
Seeds: 0
Peers: 1
Stats generated @ 14:17 on 19th Apr 2024
Torrent Info
Torrent File: Your.Honor.US.S02E01.Part.Eleven.2160p.PMTP.WEB-DL.DDP5.1.HDR.H.265-NTb[eztv.re].mkv
Torrent Hash: 41B543814297EC0F4C2B487C33CCBED48F670C33
Filesize: 5.13 GB
Released: 4th Feb 2023

File Format: MKV (Matroska)
Resolution: 720x404 px
Aspect Ratio: 16:9
Alternate Releases S L
Your Honor S02E01 1080p WEB H264-GGWP 4 0
Your Honor S02E01 XviD-AFG 3 0
Your Honor S02E01 1080p HEVC x265-MeGusta 10 1
Your Honor US S02E01 2160p PMTP WEB-DL DDP5 1 DV MKV x265-NTb 0 2
Your Honor S02E01 iNTERNAL MULTi 1080p HDTV H264-S4LVE 0 2
Your Honor S02E01 MULTI 1080p WEB H264-HiggsBoson 0 1

Your Honor S02E01 - Part Eleven

Summary:

Picking up in the aftermath of a terrible accident, a grieving Michael Desiato is beyond hope. After fleeing the scene, Eugene is aided by unlikely benefactors, including new Mayor Charlie Figaro, Big Mo and the police. Jimmy Baxter looks to expand his criminal empire, while Gina Baxter channels her anger over her dead son. The arrival in town of Assistant U.S. Attorney Olivia Delmont will upend Michael's life in ways he can't begin to imagine. Season premiere.



Your Honor US S02E01 2160p PMTP WEB-DL x265 10bit HDR10Plus DDP5 1 x265-NTb EZTV
Your Honor S2E1 Screenshot
General
Unique ID: 310758179033065675958595609632773274491 (0xE9C9D926AB72B50FE13004CB1B587B7B)
Complete name: Your.Honor.US.S02E01.Part.Eleven.2160p.PMTP.WEB-DL.DDP5.1.HDR.H.265-NTb.mkv
Format: Matroska
Format version: Version 4
File size: 5.13 GiB
Duration: 52 min 9 s
Overall bit rate: 14.1 Mb/s
Writing application: mkvmerge v68.0.0 ('The Curtain') 64-bit
Writing library: libebml v1.4.2 + libmatroska v1.6.4

Video
ID: 1
Format: HEVC
Format/Info: High Efficiency Video Coding
Format profile: Main 10@L5@Main
HDR format: SMPTE ST 2094 App 4, Version 1, HDR10+ Profile B compatible
Codec ID: V_MPEGH/ISO/HEVC
Duration: 51 min 18 s
Bit rate: 13.7 Mb/s
Width: 3 840 pixels
Height: 2 160 pixels
Display aspect ratio: 16:9
Frame rate mode: Constant
Frame rate: 23.976 (24000/1001) FPS
Color space: YUV
Chroma subsampling: 4:2:0 (Type 2)
Bit depth: 10 bits
Bits/(Pixel*Frame): 0.069
Stream size: 4.89 GiB (95%)
Default: Yes
Forced: No
Color range: Limited
Color primaries: BT.2020
Transfer characteristics: PQ
Matrix coefficients: BT.2020 non-constant
Mastering display color primaries: Display P3
Mastering display luminance: min: 0.0001 cd/m2, max: 1000 cd/m2
Maximum Content Light Level: 536 cd/m2
Maximum Frame-Average Light Level: 234 cd/m2

Audio
ID: 2
Format: E-AC-3
Format/Info: Enhanced AC-3
Commercial name: Dolby Digital Plus
Codec ID: A_EAC3
Duration: 52 min 9 s
Bit rate mode: Constant
Bit rate: 640 kb/s
Channel(s): 6 channels
Channel layout: L R C LFE Ls Rs
Sampling rate: 48.0 kHz
Frame rate: 31.250 FPS (1536 SPF)
Compression mode: Lossy
Delay relative to video: 22 ms
Stream size: 239 MiB (5%)
Language: English (US)
Service kind: Complete Main
Default: Yes
Forced: No

Text #1
ID: 3
Format: UTF-8
Codec ID: S_TEXT/UTF8
Codec ID/Info: UTF-8 Plain Text
Duration: 49 min 40 s
Bit rate: 43 b/s
Frame rate: 0.198 FPS
Count of elements: 589
Stream size: 15.9 KiB (0%)
Language: English (US)
Default: No
Forced: No

Text #2
ID: 4
Format: UTF-8
Codec ID: S_TEXT/UTF8
Codec ID/Info: UTF-8 Plain Text
Duration: 50 min 31 s
Bit rate: 52 b/s
Frame rate: 0.251 FPS
Count of elements: 760
Stream size: 19.5 KiB (0%)
Title: SDH
Language: English (US)
Default: No
Forced: No
ssl  EZTV RSS EZTV Status | EZTV API | DMCA: [email protected]