eztvx.to | eztvstatus.org
Search title:  
TV Packs only
 

Your Honor US S02E04 2160p PMTP WEB-DL DDP5 1 DV MKV x265-NTb EZTV

Episode Breakdown
Your Honor
Your Honor TV Show S02E04

Season: 2
Episode: 4
Air Date: 3 February, 2023
Download Links
     Torrent Download     Magnet Download
     Anonymous Download
Added 1 year ago by eztv (verified).
Tracker Statistics
Seeds: 1
Peers: 0
Stats generated @ 11:10 on 15th Apr 2024
Torrent Info
Torrent File: Your.Honor.US.S02E04.Part.Fourteen.2160p.REPACK.PMTP.WEB-DL.DDP5.1.DoVi.H.265-NTb[eztv.re].mkv
Torrent Hash: ACFC9594E43D74102C5A2D635C373AD23825CC0F
Filesize: 5.40 GB
Released: 4th Feb 2023

File Format: MKV (Matroska)
Resolution: 720x404 px
Aspect Ratio: 16:9
Alternate Releases S L
Your Honor S02E04 1080p WEB H264-GGEZ 4 0
Your Honor S02E04 1080p HEVC x265-MeGusta 4 0
Your Honor US S02E04 Part Fourteen 1080p AMZN WEBRip DDP5 1 x264-NTb 1 0
Your Honor US S02E04 Part Fourteen 720p AMZN WEBRip DDP5 1 x264-NTb 0 0
Your Honor US S02E04 Part Fourteen REPACK 1080p AMZN WEBRip DDP5 1 x264-NTb 2 1
Your Honor S02E04 XviD-AFG 0 0
Your Honor S02E04 720p HEVC x265-MeGusta 0 0

Your Honor S02E04 - Part Fourteen

Summary:

Olivia's plan to get Michael closer to the Baxters seems to be working when he gets invited to Jimmy Baxter's 50th birthday party. There, he witnesses the return of legendary gangster Carmine Conti, the father of Gina. Eugene makes a selfless decision to repay Little Mo for his kindness, but his good deed threatens to expose massive corruption across the power structure of New Orleans.



Your Honor US S02E04 2160p PMTP WEB-DL DDP5 1 DV MKV x265-NTb EZTV
Your Honor S2E4 Screenshot
General
Unique ID: 24228375638561545029653636836975182639 (0x123A3725698E311DE84500EA21F8032F)
Complete name: Your.Honor.US.S02E04.Part.Fourteen.2160p.REPACK.PMTP.WEB-DL.DDP5.1.DoVi.H.265-NTb.mkv
Format: Matroska
Format version: Version 4
File size: 5.40 GiB
Duration: 52 min 45 s
Overall bit rate: 14.7 Mb/s
Writing application: mkvmerge v68.0.0 ('The Curtain') 64-bit
Writing library: libebml v1.4.2 + libmatroska v1.6.4

Video
ID: 1
Format: HEVC
Format/Info: High Efficiency Video Coding
Format profile: Main 10@L5@Main
HDR format: Dolby Vision, Version 1.0, dvhe.05.06, BL+RPU
Codec ID: V_MPEGH/ISO/HEVC
Duration: 52 min 27 s
Bit rate: 14.1 Mb/s
Width: 3 840 pixels
Height: 2 160 pixels
Display aspect ratio: 16:9
Frame rate mode: Constant
Frame rate: 23.976 (24000/1001) FPS
Color space: YUV
Chroma subsampling: 4:2:0 (Type 0)
Bit depth: 10 bits
Bits/(Pixel*Frame): 0.071
Stream size: 5.17 GiB (96%)
Default: Yes
Forced: No
Color range: Full

Audio
ID: 4
Format: E-AC-3
Format/Info: Enhanced AC-3
Commercial name: Dolby Digital Plus
Codec ID: A_EAC3
Duration: 52 min 45 s
Bit rate mode: Constant
Bit rate: 640 kb/s
Channel(s): 6 channels
Channel layout: L R C LFE Ls Rs
Sampling rate: 48.0 kHz
Frame rate: 31.250 FPS (1536 SPF)
Compression mode: Lossy
Stream size: 241 MiB (4%)
Language: English
Service kind: Complete Main
Default: Yes
Forced: No

Text #1
ID: 5
Format: UTF-8
Codec ID: S_TEXT/UTF8
Codec ID/Info: UTF-8 Plain Text
Duration: 50 min 56 s
Bit rate: 49 b/s
Frame rate: 0.223 FPS
Count of elements: 682
Stream size: 18.6 KiB (0%)
Language: English (US)
Default: No
Forced: No

Text #2
ID: 6
Format: UTF-8
Codec ID: S_TEXT/UTF8
Codec ID/Info: UTF-8 Plain Text
Duration: 51 min 12 s
Bit rate: 57 b/s
Frame rate: 0.266 FPS
Count of elements: 818
Stream size: 21.7 KiB (0%)
Title: SDH
Language: English (US)
Default: No
Forced: No
ssl  EZTV RSS EZTV Status | EZTV API | DMCA: [email protected]