eztvx.to | eztvstatus.org
Search title:  
TV Packs only
 

Your Honor US S02E04 Part Fourteen 720p AMZN WEBRip DDP5 1 x264-NTb EZTV

Episode Breakdown
Your Honor
Your Honor TV Show S02E04

Season: 2
Episode: 4
Air Date: 3 February, 2023
Download Links
     Torrent Download     Magnet Download
     Anonymous Download
Added 1 year ago by eztv (verified).
Tracker Statistics
Seeds: 8
Peers: 7
Stats generated @ 09:25 on 28th Feb 2024
Torrent Info
Torrent File: Your.Honor.US.S02E04.Part.Fourteen.720p.AMZN.WEB-DL.DDP5.1.H.264-NTb[eztv.re].mkv
Torrent Hash: 5B9CE387EA2B986724F97FD2ADE351D388D6CF23
Filesize: 1.04 GB
Released: 3rd Feb 2023

File Format: MKV (Matroska)
Resolution: 1280x720 px
Aspect Ratio: 16:9
Alternate Releases S L
Your Honor S02E04 1080p WEB H264-GGEZ 10 1
Your Honor S02E04 1080p HEVC x265-MeGusta 11 4
Your Honor US S02E04 Part Fourteen 1080p AMZN WEBRip DDP5 1 x264-NTb 7 2
Your Honor US S02E04 Part Fourteen REPACK 1080p AMZN WEBRip DDP5 1 x264-NTb 5 4
Your Honor S02E04 XviD-AFG 2 1
Your Honor S02E04 720p HEVC x265-MeGusta 1 1
Your Honor S02E04 480p x264-mSD 0 0

Your Honor S02E04 - Part Fourteen

Summary:

Olivia's plan to get Michael closer to the Baxters seems to be working when he gets invited to Jimmy Baxter's 50th birthday party. There, he witnesses the return of legendary gangster Carmine Conti, the father of Gina. Eugene makes a selfless decision to repay Little Mo for his kindness, but his good deed threatens to expose massive corruption across the power structure of New Orleans.



Your Honor US S02E04 Part Fourteen 720p AMZN WEBRip DDP5 1 x264-NTb EZTV
Your Honor S2E4 Screenshot
General
Unique ID: 98471229798643976427520758304403786994 (0x4A14DE77A28C46C5579807BBFC9E8CF2)
Complete name: Your.Honor.US.S02E04.Part.Fourteen.720p.AMZN.WEB-DL.DDP5.1.H.264-NTb.mkv
Format: Matroska
Format version: Version 4
File size: 1.04 GiB
Duration: 52 min 15 s
Overall bit rate: 2 857 kb/s
Writing application: mkvmerge v68.0.0 ('The Curtain') 64-bit
Writing library: libebml v1.4.2 + libmatroska v1.6.4

Video
ID: 1
Format: AVC
Format/Info: Advanced Video Codec
Format profile: [email protected]
Format settings: CABAC / 4 Ref Frames
Format settings, CABAC: Yes
Format settings, Reference frames: 4 frames
Codec ID: V_MPEG4/ISO/AVC
Duration: 52 min 15 s
Bit rate mode: Constant
Bit rate: 2 215 kb/s
Nominal bit rate: 4 000 kb/s
Width: 1 280 pixels
Height: 720 pixels
Display aspect ratio: 16:9
Frame rate mode: Constant
Frame rate: 23.976 (24000/1001) FPS
Color space: YUV
Chroma subsampling: 4:2:0
Bit depth: 8 bits
Scan type: Progressive
Bits/(Pixel*Frame): 0.100
Stream size: 828 MiB (78%)
Default: Yes
Forced: No
Color range: Limited
Color primaries: BT.709
Transfer characteristics: BT.709
Matrix coefficients: BT.709

Audio
ID: 2
Format: E-AC-3
Format/Info: Enhanced AC-3
Commercial name: Dolby Digital Plus
Codec ID: A_EAC3
Duration: 52 min 15 s
Bit rate mode: Constant
Bit rate: 640 kb/s
Channel(s): 6 channels
Channel layout: L R C LFE Ls Rs
Sampling rate: 48.0 kHz
Frame rate: 31.250 FPS (1536 SPF)
Compression mode: Lossy
Delay relative to video: 18 ms
Stream size: 239 MiB (22%)
Language: English (US)
Service kind: Complete Main
Default: Yes
Forced: No

Text #1
ID: 3
Format: UTF-8
Codec ID: S_TEXT/UTF8
Codec ID/Info: UTF-8 Plain Text
Duration: 50 min 30 s
Bit rate: 60 b/s
Frame rate: 0.221 FPS
Count of elements: 671
Stream size: 22.3 KiB (0%)
Language: English (US)
Default: No
Forced: No

Text #2
ID: 4
Format: UTF-8
Codec ID: S_TEXT/UTF8
Codec ID/Info: UTF-8 Plain Text
Duration: 50 min 43 s
Bit rate: 70 b/s
Frame rate: 0.256 FPS
Count of elements: 778
Stream size: 26.3 KiB (0%)
Title: SDH
Language: English (US)
Default: No
Forced: No
ssl  EZTV RSS EZTV Status | EZTV API | DMCA: [email protected]