eztvx.to | eztvstatus.org
Search title:  
TV Packs only
 

BMF S02E05 Moment of Truth 1080p AMZN WEBRip DDP5 1 x264-NTb EZTV

Episode Breakdown
Black Mafia Family
Black Mafia Family TV Show S02E05

Season: 2
Episode: 5
Air Date: 3 February, 2023
Download Links
     Torrent Download     Magnet Download
     Anonymous Download
Added 1 year ago by eztv (verified).
Tracker Statistics
Seeds: 0
Peers: 0
Stats generated @ 14:52 on 27th May 2024
Torrent Info
Torrent File: BMF.S02E05.Moment.of.Truth.1080p.AMZN.WEB-DL.DDP5.1.H.264-NTb[eztv.re].mkv
Torrent Hash: B785443D6EAFA798D0BA0FDDBB9071DCE8F226E3
Filesize: 3.66 GB
Released: 3rd Feb 2023

File Format: MKV (Matroska)
Resolution: 1920x1080 px
Aspect Ratio: 16:9
Alternate Releases S L
BMF S02E05 Moment of Truth 720p AMZN WEBRip DDP5 1 x264-NTb 0 0
BMF S02E05 1080p WEB H264-GGEZ 0 1
BMF S02E05 XviD-AFG 0 0
BMF S02E05 1080p HEVC x265-MeGusta 2 0

Black Mafia Family S02E05 - Moment of Truth

Summary:

On the run, broke and in search of a new plug, Meech and Terry discover the Black Mecca of Atlanta where they connect with old friends and make new allies in an effort to rebuild their business during the drug drought.



BMF S02E05 Moment of Truth 1080p AMZN WEBRip DDP5 1 x264-NTb EZTV
Black Mafia Family S2E5 Screenshot
General
Unique ID: 255303665076233784545319621232415559204 (0xC011B285699814B1D58375E513B14E24)
Complete name: BMF.S02E05.Moment.of.Truth.1080p.AMZN.WEB-DL.DDP5.1.H.264-NTb.mkv
Format: Matroska
Format version: Version 4
File size: 3.66 GiB
Duration: 50 min 58 s
Overall bit rate: 10.3 Mb/s
Writing application: mkvmerge v68.0.0 ('The Curtain') 64-bit
Writing library: libebml v1.4.2 + libmatroska v1.6.4

Video
ID: 1
Format: AVC
Format/Info: Advanced Video Codec
Format profile: High@L4
Format settings: CABAC / 4 Ref Frames
Format settings, CABAC: Yes
Format settings, Reference frames: 4 frames
Codec ID: V_MPEG4/ISO/AVC
Duration: 50 min 58 s
Bit rate mode: Constant
Bit rate: 10 000 kb/s
Width: 1 920 pixels
Height: 1 080 pixels
Display aspect ratio: 16:9
Frame rate mode: Constant
Frame rate: 23.976 (24000/1001) FPS
Color space: YUV
Chroma subsampling: 4:2:0
Bit depth: 8 bits
Scan type: Progressive
Bits/(Pixel*Frame): 0.201
Stream size: 3.43 GiB (94%)
Default: Yes
Forced: No
Color range: Limited
Color primaries: BT.709
Transfer characteristics: BT.709
Matrix coefficients: BT.709

Audio
ID: 2
Format: E-AC-3
Format/Info: Enhanced AC-3
Commercial name: Dolby Digital Plus
Codec ID: A_EAC3
Duration: 50 min 58 s
Bit rate mode: Constant
Bit rate: 640 kb/s
Channel(s): 6 channels
Channel layout: L R C LFE Ls Rs
Sampling rate: 48.0 kHz
Frame rate: 31.250 FPS (1536 SPF)
Compression mode: Lossy
Stream size: 233 MiB (6%)
Language: English (US)
Service kind: Complete Main
Default: Yes
Forced: No

Text #1
ID: 3
Format: UTF-8
Codec ID: S_TEXT/UTF8
Codec ID/Info: UTF-8 Plain Text
Duration: 50 min 33 s
Bit rate: 95 b/s
Frame rate: 0.345 FPS
Count of elements: 1046
Stream size: 35.3 KiB (0%)
Language: English (US)
Default: No
Forced: No

Text #2
ID: 4
Format: UTF-8
Codec ID: S_TEXT/UTF8
Codec ID/Info: UTF-8 Plain Text
Duration: 50 min 33 s
Bit rate: 102 b/s
Frame rate: 0.372 FPS
Count of elements: 1128
Stream size: 38.0 KiB (0%)
Title: SDH
Language: English (US)
Default: No
Forced: No

Menu
00:00:00.000: en:Previously On
00:00:56.000: en:Ratings
00:01:04.000: en:Scene 3
00:04:52.000: en:Opening Credits
00:06:24.000: en:Scene 5
00:12:19.000: en:Scene 6
00:17:53.000: en:Scene 7
00:23:46.000: en:Scene 8
00:31:13.000: en:Scene 9
00:39:13.000: en:Scene 10
00:42:47.000: en:Scene 11
00:49:42.000: en:End Credits
ssl  EZTV RSS EZTV Status | EZTV API | DMCA: [email protected]