eztvx.to | eztvstatus.org
Search title:  
TV Packs only
 

The Last of Us S01E03 2160p CRAV WEB-DL DDP5 1 Atmos x265-NTb EZTV

Episode Breakdown
The Last of Us
The Last of Us TV Show S01E03

Season: 1
Episode: 3
Air Date: 29 January, 2023
Download Links
     Torrent Download     Magnet Download
     Anonymous Download
Added 1 year ago by eztv (verified).
Tracker Statistics
Seeds: 3
Peers: 1
Stats generated @ 18:02 on 27th Feb 2024
Torrent Info
Torrent File: The.Last.of.Us.S01E03.Long.Long.Time.2160p.CRAV.WEB-DL.DDP5.1.HEVC-NTb[eztv.re].mkv
Torrent Hash: A2F6BF5C923DF0B1AEBA16F63389A44606C2C925
Filesize: 7.89 GB
Released: 29th Jan 2023

File Format: MKV (Matroska)
Resolution: 720x404 px
Aspect Ratio: 16:9
Alternate Releases S L
The Last of Us S01E03 720p WEB h264-TRUFFLE 16 1
The Last of Us S01E03 1080p WEB H264-CAKES 193 9
The Last of Us S01E03 480p x264-mSD 16 2
The Last of Us S01E03 720p HEVC x265-MeGusta 152 3
The Last of Us S01E03 2160p WEB-DL DD+5 1 DoVi HEVC-NTb 10 1
The Last of Us S01E03 Long Long Time 2160p HMAX WEB-DL DDP5 1 HDR x265-NTb 28 3
The Last of Us S01E03 Long Long Time 1080p AMZN WEBRip DDP5 1 x264-NTb 12 0

The Last of Us S01E03 - Long, Long Time

Summary:

When a stranger approaches his compound, survivalist Bill forges an unlikely connection. Later, Joel and Ellie seek Bill's guidance.



The Last of Us S01E03 2160p CRAV WEB-DL DDP5 1 Atmos x265-NTb EZTV
The Last of Us S1E3 Screenshot
General
Unique ID: 261380781498341297129113232994071563159 (0xC4A41B7E670B097852AF84B58A814B97)
Complete name: The.Last.of.Us.S01E03.Long.Long.Time.2160p.CRAV.WEB-DL.DDP5.1.HEVC-NTb.mkv
Format: Matroska
Format version: Version 4
File size: 7.89 GiB
Duration: 1 h 15 min
Overall bit rate: 14.9 Mb/s
Writing application: mkvmerge v69.0.0 ('Day And Age') 64-bit
Writing library: libebml v1.4.2 + libmatroska v1.6.4

Video
ID: 1
Format: HEVC
Format/Info: High Efficiency Video Coding
Format profile: Main 10@L5@High
Codec ID: V_MPEGH/ISO/HEVC
Duration: 1 h 15 min
Bit rate: 14.2 Mb/s
Width: 3 840 pixels
Height: 2 160 pixels
Display aspect ratio: 16:9
Frame rate mode: Constant
Frame rate: 23.976 (24000/1001) FPS
Color space: YUV
Chroma subsampling: 4:2:0
Bit depth: 10 bits
Bits/(Pixel*Frame): 0.071
Stream size: 7.49 GiB (95%)
Default: Yes
Forced: No
Color range: Limited
Color primaries: BT.709
Transfer characteristics: BT.709
Matrix coefficients: BT.709

Audio
ID: 4
Format: E-AC-3 JOC
Format/Info: Enhanced AC-3 with Joint Object Coding
Commercial name: Dolby Digital Plus with Dolby Atmos
Codec ID: A_EAC3
Duration: 1 h 15 min
Bit rate mode: Constant
Bit rate: 768 kb/s
Channel(s): 6 channels
Channel layout: L R C LFE Ls Rs
Sampling rate: 48.0 kHz
Frame rate: 31.250 FPS (1536 SPF)
Compression mode: Lossy
Stream size: 415 MiB (5%)
Language: English
Service kind: Complete Main
Default: Yes
Forced: No
Complexity index: 16
Number of dynamic objects: 15
Bed channel count: 1 channel
Bed channel configuration: LFE

Text #1
ID: 5
Format: UTF-8
Codec ID: S_TEXT/UTF8
Codec ID/Info: UTF-8 Plain Text
Duration: 1 h 12 min
Bit rate: 29 b/s
Frame rate: 0.135 FPS
Count of elements: 587
Stream size: 15.6 KiB (0%)
Language: English (US)
Default: No
Forced: No

Text #2
ID: 6
Format: UTF-8
Codec ID: S_TEXT/UTF8
Codec ID/Info: UTF-8 Plain Text
Duration: 1 h 15 min
Bit rate: 39 b/s
Frame rate: 0.177 FPS
Count of elements: 802
Stream size: 21.6 KiB (0%)
Title: SDH
Language: English (US)
Default: No
Forced: No

Text #3
ID: 7
Format: UTF-8
Codec ID: S_TEXT/UTF8
Codec ID/Info: UTF-8 Plain Text
Duration: 1 h 13 min
Bit rate: 44 b/s
Frame rate: 0.137 FPS
Count of elements: 604
Stream size: 23.9 KiB (0%)
Language: Bulgarian (BG)
Default: No
Forced: No

Text #4
ID: 8
Format: UTF-8
Codec ID: S_TEXT/UTF8
Codec ID/Info: UTF-8 Plain Text
Duration: 1 h 13 min
Bit rate: 27 b/s
Frame rate: 0.137 FPS
Count of elements: 603
Stream size: 14.8 KiB (0%)
Language: Czech (CZ)
Default: No
Forced: No

Text #5
ID: 9
Format: UTF-8
Codec ID: S_TEXT/UTF8
Codec ID/Info: UTF-8 Plain Text
Duration: 1 h 13 min
Bit rate: 25 b/s
Frame rate: 0.132 FPS
Count of elements: 584
Stream size: 13.9 KiB (0%)
Language: Danish (DK)
Default: No
Forced: No

Text #6
ID: 10
Format: UTF-8
Codec ID: S_TEXT/UTF8
Codec ID/Info: UTF-8 Plain Text
Duration: 1 h 13 min
Bit rate: 45 b/s
Frame rate: 0.138 FPS
Count of elements: 607
Stream size: 24.7 KiB (0%)
Language: Greek (GR)
Default: No
Forced: No

Text #7
ID: 11
Format: UTF-8
Codec ID: S_TEXT/UTF8
Codec ID/Info: UTF-8 Plain Text
Duration: 1 h 13 min
Bit rate: 26 b/s
Frame rate: 0.135 FPS
Count of elements: 596
Stream size: 14.5 KiB (0%)
Title: Spanish (Latin America)
Language: Spanish (Latin America)
Default: No
Forced: No

Text #8
ID: 12
Format: UTF-8
Codec ID: S_TEXT/UTF8
Codec ID/Info: UTF-8 Plain Text
Duration: 1 h 11 min
Bit rate: 30 b/s
Frame rate: 0.122 FPS
Count of elements: 523
Stream size: 15.9 KiB (0%)
Title: Spanish (Spain)
Language: Spanish (ES)
Default: No
Forced: No

Text #9
ID: 13
Format: UTF-8
Codec ID: S_TEXT/UTF8
Codec ID/Info: UTF-8 Plain Text
Duration: 1 h 13 min
Bit rate: 29 b/s
Frame rate: 0.137 FPS
Count of elements: 603
Stream size: 16.0 KiB (0%)
Language: Estonian (EE)
Default: No
Forced: No

Text #10
ID: 14
Format: UTF-8
Codec ID: S_TEXT/UTF8
Codec ID/Info: UTF-8 Plain Text
Duration: 1 h 13 min
Bit rate: 28 b/s
Frame rate: 0.135 FPS
Count of elements: 597
Stream size: 15.1 KiB (0%)
Language: Finnish (FI)
Default: No
Forced: No

Text #11
ID: 15
Format: UTF-8
Codec ID: S_TEXT/UTF8
Codec ID/Info: UTF-8 Plain Text
Duration: 1 h 13 min
Bit rate: 25 b/s
Frame rate: 0.138 FPS
Count of elements: 607
Stream size: 14.0 KiB (0%)
Language: Croatian (HR)
Default: No
Forced: No

Text #12
ID: 16
Format: UTF-8
Codec ID: S_TEXT/UTF8
Codec ID/Info: UTF-8 Plain Text
Duration: 1 h 13 min
Bit rate: 26 b/s
Frame rate: 0.137 FPS
Count of elements: 606
Stream size: 14.2 KiB (0%)
Language: Hungarian (HU)
Default: No
Forced: No

Text #13
ID: 17
Format: UTF-8
Codec ID: S_TEXT/UTF8
Codec ID/Info: UTF-8 Plain Text
Duration: 1 h 13 min
Bit rate: 32 b/s
Frame rate: 0.137 FPS
Count of elements: 602
Stream size: 17.3 KiB (0%)
Language: Icelandic (IS)
Default: No
Forced: No

Text #14
ID: 18
Format: UTF-8
Codec ID: S_TEXT/UTF8
Codec ID/Info: UTF-8 Plain Text
Duration: 1 h 13 min
Bit rate: 26 b/s
Frame rate: 0.137 FPS
Count of elements: 604
Stream size: 14.5 KiB (0%)
Language: Lithuanian (LT)
Default: No
Forced: No

Text #15
ID: 19
Format: UTF-8
Codec ID: S_TEXT/UTF8
Codec ID/Info: UTF-8 Plain Text
Duration: 1 h 13 min
Bit rate: 29 b/s
Frame rate: 0.138 FPS
Count of elements: 608
Stream size: 16.0 KiB (0%)
Language: Latvian (LV)
Default: No
Forced: No

Text #16
ID: 20
Format: UTF-8
Codec ID: S_TEXT/UTF8
Codec ID/Info: UTF-8 Plain Text
Duration: 1 h 13 min
Bit rate: 49 b/s
Frame rate: 0.137 FPS
Count of elements: 606
Stream size: 26.7 KiB (0%)
Language: Macedonian (MK)
Default: No
Forced: No

Text #17
ID: 21
Format: UTF-8
Codec ID: S_TEXT/UTF8
Codec ID/Info: UTF-8 Plain Text
Duration: 1 h 13 min
Bit rate: 24 b/s
Frame rate: 0.135 FPS
Count of elements: 596
Stream size: 13.2 KiB (0%)
Language: Dutch (NL)
Default: No
Forced: No

Text #18
ID: 22
Format: UTF-8
Codec ID: S_TEXT/UTF8
Codec ID/Info: UTF-8 Plain Text
Duration: 1 h 13 min
Bit rate: 27 b/s
Frame rate: 0.136 FPS
Count of elements: 599
Stream size: 14.6 KiB (0%)
Language: Norwegian (NO)
Default: No
Forced: No

Text #19
ID: 23
Format: UTF-8
Codec ID: S_TEXT/UTF8
Codec ID/Info: UTF-8 Plain Text
Duration: 1 h 13 min
Bit rate: 24 b/s
Frame rate: 0.136 FPS
Count of elements: 598
Stream size: 13.0 KiB (0%)
Language: Polish (PL)
Default: No
Forced: No

Text #20
ID: 24
Format: UTF-8
Codec ID: S_TEXT/UTF8
Codec ID/Info: UTF-8 Plain Text
Duration: 1 h 13 min
Bit rate: 24 b/s
Frame rate: 0.137 FPS
Count of elements: 603
Stream size: 13.3 KiB (0%)
Title: Portuguese (Brazil)
Language: Portuguese (BR)
Default: No
Forced: No

Text #21
ID: 25
Format: UTF-8
Codec ID: S_TEXT/UTF8
Codec ID/Info: UTF-8 Plain Text
Duration: 1 h 13 min
Bit rate: 29 b/s
Frame rate: 0.137 FPS
Count of elements: 603
Stream size: 16.1 KiB (0%)
Title: Portuguese (Portugal)
Language: Portuguese (PT)
Default: No
Forced: No

Text #22
ID: 26
Format: UTF-8
Codec ID: S_TEXT/UTF8
Codec ID/Info: UTF-8 Plain Text
Duration: 1 h 13 min
Bit rate: 29 b/s
Frame rate: 0.136 FPS
Count of elements: 599
Stream size: 16.0 KiB (0%)
Language: Romanian (RO)
Default: No
Forced: No

Text #23
ID: 27
Format: UTF-8
Codec ID: S_TEXT/UTF8
Codec ID/Info: UTF-8 Plain Text
Duration: 1 h 14 min
Bit rate: 43 b/s
Frame rate: 0.136 FPS
Count of elements: 609
Stream size: 24.0 KiB (0%)
Language: Russian (RU)
Default: No
Forced: No

Text #24
ID: 28
Format: UTF-8
Codec ID: S_TEXT/UTF8
Codec ID/Info: UTF-8 Plain Text
Duration: 1 h 13 min
Bit rate: 28 b/s
Frame rate: 0.136 FPS
Count of elements: 600
Stream size: 15.1 KiB (0%)
Language: Slovak (SK)
Default: No
Forced: No

Text #25
ID: 29
Format: UTF-8
Codec ID: S_TEXT/UTF8
Codec ID/Info: UTF-8 Plain Text
Duration: 1 h 13 min
Bit rate: 26 b/s
Frame rate: 0.137 FPS
Count of elements: 606
Stream size: 14.3 KiB (0%)
Language: Slovenian (SI)
Default: No
Forced: No

Text #26
ID: 30
Format: UTF-8
Codec ID: S_TEXT/UTF8
Codec ID/Info: UTF-8 Plain Text
Duration: 1 h 13 min
Bit rate: 26 b/s
Frame rate: 0.137 FPS
Count of elements: 605
Stream size: 14.2 KiB (0%)
Language: Serbian-Latn-RS
Default: No
Forced: No

Text #27
ID: 31
Format: UTF-8
Codec ID: S_TEXT/UTF8
Codec ID/Info: UTF-8 Plain Text
Duration: 1 h 13 min
Bit rate: 25 b/s
Frame rate: 0.136 FPS
Count of elements: 599
Stream size: 14.0 KiB (0%)
Language: Swedish (SE)
Default: No
Forced: No

Text #28
ID: 32
Format: UTF-8
Codec ID: S_TEXT/UTF8
Codec ID/Info: UTF-8 Plain Text
Duration: 1 h 13 min
Bit rate: 29 b/s
Frame rate: 0.137 FPS
Count of elements: 605
Stream size: 16.0 KiB (0%)
Language: Turkish (TR)
Default: No
Forced: No

Menu
00:00:00.000: Chapter 1
01:14:32.970: Credits
ssl  EZTV RSS EZTV Status | EZTV API | DMCA: [email protected]