eztvx.to | eztvstatus.org
Search title:  
TV Packs only
 

Love Island S09E09 WEBRip x264-ION10 EZTV

Episode Breakdown
Love Island
Love Island TV Show S09E09

Season: 9
Episode: 9
Air Date: 25 January, 2023
Download Links
     Torrent Download     Magnet Download
     Anonymous Download
Added 1 year ago by eztv (verified).
Tracker Statistics
Seeds: 0
Peers: 0
Stats generated @ 05:55 on 25th May 2024
Torrent Info
Torrent File: Love.Island.S09E09.WEBRip.x264-ION10[eztv.re].mp4
Torrent Hash: E3A2D9660927874BEDE90517BEB9169761BCBCFB
Filesize: 450 MB
Released: 27th Jan 2023

File Format: MP4 (MPEG-4)
Resolution: 720x404 px
Aspect Ratio: 16:9
Alternate Releases S L
Love Island S09E09 1080p HDTV H264-DARKFLiX 1 0
Love Island S09E09 XviD-AFG 2 0
Love Island S09E09 1080p HEVC x265-MeGusta 1 1
Love Island S09E09 720p WEB h264-SCONES 0 0
Love Island S09E09 1080p WEB h264-SCONES 0 0
Love Island S09E09 480p x264-mSD 0 0

Love Island S09E09 - Episode 9

Summary:

As the stakes are getting higher by the day, Maya Jama presents all the latest action from the villa.



Love Island S09E09 WEBRip x264-ION10 EZTV
Love Island S9E9 Screenshot
General
Complete name: Love.Island.S09E09.WEBRip.x264-ION10.mp4
Format: MPEG-4
Format profile: Base Media
Codec ID: isom (isom/iso2/avc1/mp41)
File size: 450 MiB
Duration: 46 min 28 s
Overall bit rate: 1 353 kb/s
Movie name:   - Love.Island.S09E09.WEBRip.x264-ION10
Encoded date: UTC 2023-01-28 00:50:55
Tagged date: UTC 2023-01-28 00:50:55
Writing application: Lavf58.20.100
Comment:   - Love.Island.S09E09.WEBRip.x264-ION10

Video
ID: 1
Format: AVC
Format/Info: Advanced Video Codec
Format profile: [email protected]
Format settings: CABAC / 5 Ref Frames
Format settings, CABAC: Yes
Format settings, Reference frames: 5 frames
Codec ID: avc1
Codec ID/Info: Advanced Video Coding
Duration: 46 min 28 s
Bit rate: 1 100 kb/s
Width: 720 pixels
Height: 400 pixels
Display aspect ratio: 16:9
Frame rate mode: Constant
Frame rate: 25.000 FPS
Color space: YUV
Chroma subsampling: 4:2:0
Bit depth: 8 bits
Scan type: Progressive
Bits/(Pixel*Frame): 0.153
Stream size: 363 MiB (81%)
Title:   - Love.Island.S09E09.WEBRip.x264-ION10
Writing library: x264 core 152 r2851M ba24899
Encoding settings: cabac=1 / ref=5 / deblock=1:-1:-1 / analyse=0x3:0x113 / me=umh / subme=9 / psy=1 / psy_rd=1.00:0.15 / mixed_ref=1 / me_range=16 / chroma_me=1 / trellis=2 / 8x8dct=1 / cqm=0 / deadzone=21,11 / fast_pskip=1 / chroma_qp_offset=-3 / threads=12 / lookahead_threads=1 / sliced_threads=0 / nr=0 / decimate=1 / interlaced=0 / bluray_compat=0 / constrained_intra=0 / bframes=3 / b_pyramid=2 / b_adapt=2 / b_bias=0 / direct=3 / weightb=1 / open_gop=0 / weightp=2 / keyint=250 / keyint_min=25 / scenecut=40 / intra_refresh=0 / rc_lookahead=50 / rc=abr / mbtree=1 / bitrate=1100 / ratetol=1.0 / qcomp=0.60 / qpmin=0 / qpmax=69 / qpstep=4 / ip_ratio=1.40 / aq=1:1.00
Encoded date: UTC 2023-01-28 00:50:55
Tagged date: UTC 2023-01-28 00:50:55
Codec configuration box: avcC

Audio
ID: 2
Format: AAC LC
Format/Info: Advanced Audio Codec Low Complexity
Codec ID: mp4a-40-2
Duration: 46 min 28 s
Duration_LastFrame: -11 ms
Bit rate mode: Constant
Bit rate: 256 kb/s
Channel(s): 2 channels
Channel layout: L R
Sampling rate: 48.0 kHz
Frame rate: 46.875 FPS (1024 SPF)
Compression mode: Lossy
Stream size: 85.1 MiB (19%)
Title:   - Love.Island.S09E09.WEBRip.x264-ION10
Language: English
Default: Yes
Alternate group: 1
Encoded date: UTC 2023-01-28 00:50:55
Tagged date: UTC 2023-01-28 00:50:55
ssl  EZTV RSS EZTV Status | EZTV API | DMCA: [email protected]